Классический форум-трекер
canvas not supported
Нас вместе: 4 073 130
Loading...

Убить Билла (Расширенная Версия) / Kill Bill: Vol. 1 (Extended Cut) (2003) DVDRip [Hand Made Extended Cut]


 
 
RSS
Начать новую тему   Ответить на тему    Торрент-трекер NNM-Club -> Остальное -> hand made * video
Автор Сообщение
FedExe ®
Uploader 300+
Стаж: 8 лет 11 мес.
Сообщений: 9666
Ratio: 377,452
Поблагодарили: 923482
100%
Откуда: LoX - living off experien
Убить Билла (Расширенная Версия) / Kill Bill: Vol. 1 (Extended Cut) (2003) DVDRip
«This October, Go For The Kill»

Русское название: Убить Билла (Расширенная Версия)
Оригинальное название: Kill Bill: Vol. 1 (Extended Cut)
Год выпуска: 2003
Жанр: Триллер, Боевик
Перевод: Дублированный
Субтитры: нет

Описание фильма:
Смертоносные Гадюки - самая жестокая банда убийц. А Черная Мамба - лучшая из них. И ее предали свои!.. Пуля в голову. Красное на белом. Кровь на подвенечном платье, темнота...
Но она воскресла! Вернулась, чтобы напомнить о себе. Теперь только безжалостная месть успокоит ее сердце! И не ждите пощады, пока последняя капля крови предателей не стечет по лезвию ее самурайского меча!

Режиссер: Квентин Тарантино /Quentin Tarantino/
Актеры: Ума Турман /Uma Thurman/, Дэвид Кэррэдин /David Carradine/, Люси Лиу /Lucy Liu/, Дэрил Ханна /Daryl Hannah/, Вивика Э. Фокс /Vivica A. Fox/, Майкл Мэдсен /Michael Madsen/

Продолжительность: 01:52:15



Дата мировой премьеры: 10 октября 2003
Дата российской премьеры: 4 декабря 2003, «West»
Дата выхода DVD релиза: 30 апреля 2009, «Мьюзик-Трейд»

Видеокодек: Xvid
Битрейт видео: ~791 kbps
Размер кадра: 688x288
Качество видео: DVDRip
Аудиокодек: MP3 2.0
Битрейт аудио: 128 kbps
General
Format : AVI
Format/Info : Audio Video Interleave
File size : 745 MiB
Duration : 1h 52mn
Overall bit rate : 928 Kbps
Writing application : VirtualDubMod 1.5.10.2 (build 2540/release)
Writing library : VirtualDubMod build 2540/release

Video
ID : 0
Format : MPEG-4 Visual
Format profile : Advanced Simple@L5
Format settings, BVOP : 1
Format settings, QPel : No
Format settings, GMC : No warppoints
Format settings, Matrix : Custom
Codec ID : XVID
Codec ID/Hint : XviD
Duration : 1h 52mn
Bit rate : 791 Kbps
Width : 688 pixels
Height : 288 pixels
Display aspect ratio : 2.35:1
Frame rate : 23.976 fps
Color space : YUV
Chroma subsampling : 4:2:0
Bit depth : 8 bits
Scan type : Progressive
Compression mode : Lossy
Bits/(Pixel*Frame) : 0.166
Stream size : 635 MiB (85%)
Writing library : XviD 1.2.1 (UTC 2008-12-04)

Audio
ID : 1
Format : MPEG Audio
Format version : Version 1
Format profile : Layer 3
Codec ID : 55
Codec ID/Hint : MP3
Duration : 1h 52mn
Bit rate mode : Constant
Bit rate : 128 Kbps
Channel(s) : 2 channels
Sampling rate : 48.0 KHz
Compression mode : Lossy
Stream size : 103 MiB (14%)
Alignment : Aligned on interleaves
Interleave, duration : 42 ms (1.00 video frame)
Interleave, preload duration : 504 ms
Writing library : LAME3.97
Encoding settings : -m s -V 4 -q 2 -lowpass 17 -b 128
Расширенная версия была получена путем врезания удаленных и расширенных сцен на свои места.

Скриншоты:



Время раздачи: 24/7 по мере возможности...
[NNM-Club.ru]_[video] Ubit_Billa_jap_DVDRip Extended.avi.torrent
 Торрент: Платиновая раздача  Зарегистрирован
 
Скачать


Примагнититься
 Зарегистрирован:   06 Окт 2012 21:27:21
 Размер:   745 MB  (
 Рейтинг:   4,3 (Голосов: 48)
 Поблагодарили:   101
 Проверка:   Оформление проверено модератором 07 Окт 2012 16:11:58
Как cкачать  ·  Как раздать  ·  Правильно оформить  ·  Поднять ратио!  

_________________

Ну и конечно, данный материал выложен исключительно для ознакомления. После просмотра Вы обязаны удалить все файлы, отформатировать жесткий диск, разбить его молотком, облить кислотой и сжечь остатки в микроволновке.
Foolus
Стаж: 7 лет 8 мес.
Сообщений: 8
Ratio: 2,278
100%
Откуда: Москва
russia.gif
Спасибо огромное за релиз, долго искал в таком размере, за раздачу 5+ :респект:
Sosezi
Стаж: 6 лет 9 мес.
Сообщений: 77
Ratio: 40,459
Поблагодарили: 217
100%
вот с него то и началось моё заболевание Японией
нет раньше я тоже любил Японию но после Этого кино понял Ня! Каваии!! ФАП!! Панцу!! МЯСО!!!!!!!!!!!!
Топик был перенесен из форума Зарубежные Фильмы (HD*Rip/LQ, DVDRip, SATRip, VHSRip) в форум hand made * video



Исправил релиз - напиши ЛС MAG3131, дав ссылку на релиз.
Если нет ответа 24 часа - нажми на кнопку "Обратить внимание модераторов".
Показать сообщения:   
Начать новую тему   Ответить на тему    Торрент-трекер NNM-Club -> Остальное -> hand made * video Часовой пояс: GMT + 3
Страница 1 из 1