Классический форум-трекер
canvas not supported
Нас вместе: 4 077 122

Сказки Х.К.Андерсена. Сборник мультфильмов (1956-1976) DVD5 [Реставрация - Крупный План]


 
 
RSS
Начать новую тему   Ответить на тему    Торрент-трекер NNM-Club -> Мультфильмы -> Отечественные Мультфильмы (HD, UHD, UHD-LQ, DVD, Сборники)
Автор Сообщение
bombolik ®
Стаж: 12 лет 6 мес.
Сообщений: 235
Ratio: 78,172
Поблагодарили: 27801
100%
Откуда: SPb
russia.gif
Сказки Х.К.Андерсена. Сборник мультфильмов (1956-1976) DVD5
Жанр: Мультфильм, рисованный, детский, экранизация

Описание:
Прекрасные и удивительные сказки Х.К.Андерсена! Зачитываясь ими в детстве, мы возвращаемся к ним позднее, чтобы вновь войти в волшебный мир, наполненный заманчивым ощущением познания тайны жизни.
Произведения датского сказочника всегда привлекали мультипликаторов. На диске представлены экранизации известных сказок Андерсена, созданные в разные годы мастерами отечественной анимации.

Режиссер: Владимир Дегтярев, Лев Мильчин, Леонид Амальрик, Иван Аксенчук

Список мультфильмов:
01. Гадкий утенок
02. Свинья-копилка
03. Дюймовочка
04. Стойкий оловянный солдатик
05. Русалочка

Продолжительность: 01:42:22
Качество видео: DVD5

Видеокодек: MPEG-2
Битрейт видео: 4781-7652 Кбит/с
Размер кадра: PAL 4:3 (720x576) VBR
Аудио #1: AC3, 3/2 (L,C,R,SL,SR)+LFE ch, 448 Кбит/с
Аудио #2: AC3, 1/0 (C) ch, 96 Кбит/с
Аудио #3: AC3, 1/0 (C) ch, 224 Кбит/с
Гадкий утенок
Утка обнаруживает странное яйцо в своей кладке. И вот из него вылупляется самый гадкий утенок. На птичьем дворе Гадкий Утенок быстро понимает, как тяжело быть не таким, как все остальные. Когда же насмешки и нападки стали совсем невыносимыми, Гадкий Утенок решает спасти свою жизнь бегством. Он оказывается лицом к лицу с тяжелыми испытаниями, но, в конце концов, познает, кто он есть на самом деле...

Продолжительность: 00:18:22
Год выпуска: 1956
Автор сценария: Георгий Березко
Режиссер: Владимир Дегтярев
Художник: Б. Петин, В. Игнатов
Композитор: Эдуард Колмановский
Оператор: Николай Воинов

Скриншоты:
Свинья-копилка
Гипсовая свинья-копилка разбилась, так как старалась захватить больше монет, чем могла вместить в себя.

Продолжительность: 00:10:00
Год выпуска: 1963
Автор сценария: Сакко Рунге, Александр Кумма
Режиссер: Лев Мильчин
Художник: Фаина Епифанова, Лев Мильчин
Композитор: Ян Френкель
Оператор: Михаил Друян

Скриншоты:
Дюймовочка
Фильм о девочке, величиной в один дюйм — Дюймовочке. После ряда приключений она находит свою судьбу в стране эльфов.

Продолжительность: 00:28:30
Год выпуска: 1964
Автор сценария: Николай Эрдман
Режиссер: Леонид Амальрик
Художник: Надежда Привалова, Татьяна Сазонова
Композитор: Никита Богословский
Оператор: Михаил Друян

Скриншоты:
Стойкий оловянный солдатик
Было когда-то на свете двадцать пять оловянных солдатиков. Все они были сыновьями одной матери — старой оловянной ложки и, значит, приходились друг другу родными братьями. Оловянные солдатики походили друг на друга как две капли воды, и лишь один отличался от своих братьев: у него была только одна нога. Его отливали последним, и олова немножко не хватило. Впрочем, он и на одной ноге стоял так же твердо, как другие на двух…

Продолжительность: 00:17:00
Год выпуска: 1976
Автор сценария: Алла Ахундова
Режиссер: Лев Мильчин
художник: Лев Мильчин, Ирина Светлица, Ирина Троянова
Композитор: Ян Френкель
Оператор: Михаил Друян

Скриншоты:
Русалочка
По мотивам сказки Г. Андерсена. Фильм о любви и дружбе. Русалочка влюбляется в прекрасного принца и спасает его от гибели. Чтобы быть с ним рядом Русалочка лишается своего голоса в обмен на человеческое обличье.

Продолжительность: 00:27:30
Год выпуска: 1968
Автор сценария: Александр Галич
Режиссер: Иван Аксенчук
Художник: Даниил Менделевич, Дмитрий Анпилов, В. Исаева, Инна Заруба
Композитор: Александр Локшин
Оператор: Михаил Друян

Скриншоты:
Title: Skaski.G.H.Andersena.Sbornik.multfilmov. [nnm-club.me]
Size: 4.30 Gb ( 4 513 330,00 KBytes ) - DVD-5
Enabled regions: 1, 2, 3, 4, 5, 6, 7, 8

VTS_01 :
Play Length: 00:00:30
Video: PAL 16:9 (720x576) VBR, Auto Letterboxed
Audio:
Russian (Dolby AC3, 6 ch)

VTS_02 :
Play Length: 00:00:34
Video: PAL 4:3 (720x576) VBR

VTS_03 :
Play Length: 00:18:22+{00:18:22}+{00:18:22}
Video: PAL 4:3 (720x576) VBR
Audio:
Russian (Dolby AC3, 6 ch)
Russian (Dolby AC3, 1 ch)

VTS_04 :
Play Length: 00:10:00+{00:10:00}+{00:10:00}
Video: PAL 4:3 (720x576) VBR
Audio:
Russian (Dolby AC3, 6 ch)
Russian (Dolby AC3, 1 ch)

VTS_05 :
Play Length: 00:28:30+{00:28:30}+{00:28:30}
Video: PAL 4:3 (720x576) VBR
Audio:
Russian (Dolby AC3, 6 ch)
Russian (Dolby AC3, 1 ch)

VTS_06 :
Play Length: 00:17:00+{00:17:00}+{00:17:00}
Video: PAL 4:3 (720x576) VBR
Audio:
Russian (Dolby AC3, 6 ch)
Russian (Dolby AC3, 1 ch)

VTS_07 :
Play Length: 00:27:30+{00:27:30}+{00:27:30}
Video: PAL 4:3 (720x576) VBR
Audio:
Russian (Dolby AC3, 6 ch)
Russian (Dolby AC3, 1 ch)

* Menus Information *

VIDEO_TS Menu
Video:
PAL 4:3 (720x576) VBR
English Language Unit :
Title Menu

VTS_01 Menu
Video:
PAL 4:3 (720x576) VBR
Audio:
Not specified (Dolby AC3, 6 ch)
English Language Unit :
Root Menu

VTS_02 Menu
Video:
PAL 4:3 (720x576) VBR
English Language Unit :
Root Menu

VTS_03 Menu
Video:
PAL 4:3 (720x576) VBR
English Language Unit :
Root Menu

VTS_04 Menu
Video:
PAL 4:3 (720x576) VBR
English Language Unit :
Root Menu

VTS_05 Menu
Video:
PAL 4:3 (720x576) VBR
English Language Unit :
Root Menu

VTS_06 Menu
Video:
PAL 4:3 (720x576) VBR
English Language Unit :
Root Menu

VTS_07 Menu
Video:
PAL 4:3 (720x576) VBR
English Language Unit :
Root Menu
Общее
Полное имя : D:\Skaski.G.H.Andersena.Sbornik.multfilmov. [nnm-club.me]\VTS_03_1.VOB
Формат : MPEG-PS
Размер файла : 744 Мбайт
Продолжительность : 18 м.
Общий поток : 5661 Кбит/сек

Видео
Идентификатор : 224 (0xE0)
Формат : MPEG Video
Версия формата : Version 2
Профиль формата : Main@Main
Параметр BVOP формата : Да
Параметр матрицы формата : Выборочная
Параметр GOP формата : M=3, N=12
Продолжительность : 18 м.
Битрейт : 5000 Кбит/сек
Ширина : 720 пикселей
Высота : 576 пикселей
Соотношение сторон : 4:3
Частота кадров : 25,000 кадров/сек
Стандарт вещания : PAL
Цветовое пространство : YUV
Субдискретизация насыщенности : 4:2:0
Битовая глубина : 8 бит
Тип развёртки : Чересстрочная
Порядок развёртки : Верхнее поле первое
Метод сжатия : С потерями
Бит/(Пиксели*Кадры) : 0.482
Размер потока : 658 Мбайт (88%)

Аудио #1
Идентификатор : 189 (0xBD)-128 (0x80)
Формат : AC-3
Формат/Информация : Audio Coding 3
Расширение режима : CM (complete main)
Параметр Endianness формата : Big
Режим смешивания : DVD-Video
Продолжительность : 18 м.
Вид битрейта : Постоянный
Битрейт : 448 Кбит/сек
Каналы : 6 каналов
Расположение каналов : Front: L C R, Side: L R, LFE
Частота : 48,0 КГц
Битовая глубина : 16 бит
Метод сжатия : С потерями
Задержка видео : 94 мс.
Размер потока : 58,8 Мбайт (8%)

Аудио #2
Идентификатор : 189 (0xBD)-129 (0x81)
Формат : AC-3
Формат/Информация : Audio Coding 3
Расширение режима : CM (complete main)
Параметр Endianness формата : Big
Режим смешивания : DVD-Video
Продолжительность : 18 м.
Вид битрейта : Постоянный
Битрейт : 96,0 Кбит/сек
Каналы : 1 канал
Расположение каналов : Front: C
Частота : 48,0 КГц
Битовая глубина : 16 бит
Метод сжатия : С потерями
Задержка видео : 94 мс.
Размер потока : 12,6 Мбайт (2%)

Меню
Общее
Полное имя : D:\Skaski.G.H.Andersena.Sbornik.multfilmov. [nnm-club.me]\VTS_04_1.VOB
Формат : MPEG-PS
Размер файла : 342 Мбайт
Продолжительность : 9 м. 59 с.
Общий поток : 4780 Кбит/сек

Видео
Идентификатор : 224 (0xE0)
Формат : MPEG Video
Версия формата : Version 2
Профиль формата : Main@Main
Параметр BVOP формата : Да
Параметр матрицы формата : Выборочная
Параметр GOP формата : M=3, N=12
Продолжительность : 9 м. 59 с.
Битрейт : 4000 Кбит/сек
Ширина : 720 пикселей
Высота : 576 пикселей
Соотношение сторон : 4:3
Частота кадров : 25,000 кадров/сек
Стандарт вещания : PAL
Цветовое пространство : YUV
Субдискретизация насыщенности : 4:2:0
Битовая глубина : 8 бит
Тип развёртки : Чересстрочная
Порядок развёртки : Верхнее поле первое
Метод сжатия : С потерями
Бит/(Пиксели*Кадры) : 0.386
Размер потока : 287 Мбайт (84%)

Аудио #1
Идентификатор : 189 (0xBD)-128 (0x80)
Формат : AC-3
Формат/Информация : Audio Coding 3
Расширение режима : CM (complete main)
Параметр Endianness формата : Big
Режим смешивания : DVD-Video
Продолжительность : 9 м. 59 с.
Вид битрейта : Постоянный
Битрейт : 448 Кбит/сек
Каналы : 6 каналов
Расположение каналов : Front: L C R, Side: L R, LFE
Частота : 48,0 КГц
Битовая глубина : 16 бит
Метод сжатия : С потерями
Задержка видео : -80 мс.
Размер потока : 32,0 Мбайт (9%)

Аудио #2
Идентификатор : 189 (0xBD)-129 (0x81)
Формат : AC-3
Формат/Информация : Audio Coding 3
Расширение режима : CM (complete main)
Параметр Endianness формата : Big
Режим смешивания : DVD-Video
Продолжительность : 9 м. 59 с.
Вид битрейта : Постоянный
Битрейт : 224 Кбит/сек
Каналы : 1 канал
Расположение каналов : Front: C
Частота : 48,0 КГц
Битовая глубина : 16 бит
Метод сжатия : С потерями
Задержка видео : -80 мс.
Размер потока : 16,0 Мбайт (5%)

Меню

Скриншоты:


Время раздачи: 24/7
Реставрация от: АлексКуз
[NNM-Club.me]_Skaski.G.H.Andersena.Sbornik.multfilmov. [nnm-club.ru].torrent
 Торрент: Платиновая раздача  Зарегистрирован
 
Скачать


Примагнититься
 Зарегистрирован:   11 Мар 2019 15:55:38
 Размер:   4,3 GB  (
 Рейтинг:   4,9 (Голосов: 98)
 Поблагодарили:   370
 Проверка:   Оформление проверено модератором 11 Мар 2019 16:03:45
Как cкачать  ·  Как раздать  ·  Правильно оформить  ·  Поднять ратио!  
sergikch
Стаж: 9 лет 10 мес.
Сообщений: 30
Ratio: 3,631
100%
russia.gif
Отличный сборник старых мультов. =)
holod1985
Стаж: 10 лет 3 мес.
Сообщений: 231
Ratio: 2,928
Поблагодарили: 1344
41.87%
Откуда: Новокузнецк
russia.gif
хочу, спасибо

_________________
Ушел в реальный мир в 2008 г.
Варяжко
Uploaders
 
Стаж: 10 лет
Сообщений: 254
Ratio: 38,953
Поблагодарили: 837
39.96%
Откуда: оттуда
pirates.png
Спасибо, доча будет рада +)
Игорь: )
Коллекционер Союзмультфильма
Стаж: 9 лет 11 мес.
Сообщений: 492
Ratio: 68,838
Раздал: 4,92 TB
Поблагодарили: 55841
100%
ukraine.gif
korzz 288 человек скачали и никаких нареканий и жалоб.

_________________
Мои релизы
dennis2006
Стаж: 9 лет 7 мес.
Сообщений: 33
Ratio: 1,666
52.27%
ukraine.gif
Спасиба мил человек.... Сын очень рад....
hardrover
Стаж: 11 лет 10 мес.
Сообщений: 26
Ratio: 1,114
100%
ukraine.gif
И в 2012 году от всех деток ПРЕМНОГО БЛАГОДАРНЫ!!!
VEL BAR
Стаж: 7 лет 5 мес.
Сообщений: 311
Ratio: 63,584
100%
Откуда: Далекое прошлое
belarus.gif
В 2014-м ----ОГРОМНЕЙШЕЕ СПАСИБО,от всей семьи!!!
almikl
Куратор Детского.
Модератор Видео.
RG Всё лучшее - детям!
Uploader 500+
 
Стаж: 12 лет 2 мес.
Сообщений: 4667
Ratio: 329,518
Поблагодарили: 104380
100%
Откуда: Дааалекое Подмосковье
russia.gif
Торрент обновлен, просьба перезакачать.
Включаем DHT в древних раздачах (Обновлено)
Показать сообщения:   
Начать новую тему   Ответить на тему    Торрент-трекер NNM-Club -> Мультфильмы -> Отечественные Мультфильмы (HD, UHD, UHD-LQ, DVD, Сборники) Часовой пояс: GMT + 3
Страница 1 из 1