Классический форум-трекер
canvas not supported
Нас вместе: 4 079 237

Зед и два нуля / Zoo / A Zed & Two Noughts (1986) BDRip


 
 
RSS
Начать новую тему   Ответить на тему    Торрент-трекер NNM-Club -> Классика кино и Старые фильмы до 90-х -> Старые Зарубежные Фильмы (HD*Rip/LQ, DVDRip, SATRip, VHSRip)
Автор Сообщение
Serg_shadow ®
Стаж: 7 лет 5 мес.
Сообщений: 398
Ratio: 3976,397
Раздал: 76,51 TB
Поблагодарили: 7329
100%
nnm-club.gif
Зед и два нуля / Zoo / A Zed & Two Noughts (1986) BDRip
Год выпуска: 1986
Производство: Великобритания, Нидерланды | Allarts Enterprises, BFI, VPRO, Artificial Eye, Film Four International
Жанр: Драма, комедия
Перевод: Многоголосый закадровый
Субтитры: Отсутствуют

Дата мировой премьеры: 9 апреля 1986, Франция
Дата выхода DVD релиза: 28 декабря 1999, Fox Lorber
Дата выхода Blu-Ray релиза: 23 августа 2010, BFI

Режиссер: Питер Гринуэй
Сценарий: Питер Гринуэй
Продюсер: Кеес Касандер, Питер Сейнсбури
Актеры: Андреа Ферреоль, Брайан Дикон, Эрик Дикон, Фрэнсис Барбер, Джосс Экленд, Джим Дэвидсон, Агнес Бруле, Гузье ван Тилборг, Херард Толен, Кен Кэмпбелл, Вольф Калер, Джеффри Палмер

Описание фильма:
Три женщины попадают в автокатастрофу. Две погибают, а третьей ампутируют ногу. Мужья погибших, братья-близнецы Оливер и Освальд, работающие зоологами, снимают на пленку процессы распада живой материи, пытаясь вслед за Дарвином докопаться до первооснов человеческой эволюции.



Продолжительность: 01:56:34
Качество видео: BDRip

Видеокодек: Xvid
Битрейт видео: 1553 кбит/c
Размер кадра: 720x432
Аудиокодек: AC3 2.0
Битрейт аудио: 224 кбит/c
  • В начале фильма вниманию зрителей представляется титульный газетный лист, содержащий заметку о смерти жён братьев Дьюс. Кроме этого, на той же странице присутствуют два сообщения, поясняющие сюжетные элементы из двух последующих фильмов Питера Гринуэя: "Живот архитектора" (1987) — заметка "Architect Dies" ("Архитектор умирает"), и "Отсчёт утопленников" (1988) — заметка "A Hot Bath Heart Attack" ("Сердечный приступ в горячей ванной").
General
Complete name : D:\A_Zed_&_Two_Noughts_1986.BDRip.XviD.avi
Format : AVI
Format/Info : Audio Video Interleave
File size : 1.45 GiB
Duration : 1h 56mn
Overall bit rate : 1 786 Kbps
Writing application : VirtualDubMod 1.5.10.2 (build 2540/release)
Writing library : VirtualDubMod build 2540/release

Video
ID : 0
Format : MPEG-4 Visual
Format profile : Advanced Simple@L5
Format settings, BVOP : 1
Format settings, QPel : No
Format settings, GMC : No warppoints
Format settings, Matrix : Default (MPEG)
Codec ID : XVID
Codec ID/Hint : XviD
Duration : 1h 56mn
Bit rate : 1 553 Kbps
Width : 720 pixels
Height : 432 pixels
Display aspect ratio : 1.667
Frame rate : 24.000 fps
Color space : YUV
Chroma subsampling : 4:2:0
Bit depth : 8 bits
Scan type : Progressive
Compression mode : Lossy
Bits/(Pixel*Frame) : 0.208
Stream size : 1.26 GiB (87%)
Writing library : XviD 1.2.0.dev47 (UTC 2006-11-01)

Audio
ID : 1
Format : AC-3
Format/Info : Audio Coding 3
Mode extension : CM (complete main)
Format settings, Endianness : Big
Codec ID : 2000
Duration : 1h 56mn
Bit rate mode : Constant
Bit rate : 224 Kbps
Channel(s) : 2 channels
Channel positions : Front: L R
Sampling rate : 48.0 KHz
Bit depth : 16 bits
Compression mode : Lossy
Stream size : 187 MiB (13%)
Alignment : Split accross interleaves
Interleave, duration : 42 ms (1.00 video frame)
Interleave, preload duration : 500 ms
Скриншоты:


Зед и два нуля  на NNM-club
[NNM-Club.me]_A_Zed_&_Two_Noughts_1986.BDRip.XviD.avi.torrent
 Торрент: Платиновая раздача  Зарегистрирован
 
Скачать


Примагнититься
 Зарегистрирован:   08 Янв 2014 05:25:30
 Размер:   1,45 GB  (
 Рейтинг:   4,7 (Голосов: 24)
 Поблагодарили:   79
 Проверка:   Оформление проверено модератором 10 Янв 2014 02:31:29
Как cкачать  ·  Как раздать  ·  Правильно оформить  ·  Поднять ратио!  

_________________
Красавица Эдвиж Фенек на NNM-club,     Фильмография Актёров
Mak2010Sim
Стаж: 9 лет
Сообщений: 274
Ratio: 5,23
97.98%
Откуда: Настоящий Сибиряк
russia.gif
описание мега крутое... ничё не понял и фильм не заинтересовал вообще никак
Amentia
Стаж: 8 лет 9 мес.
Сообщений: 403
Ratio: 165,413
Раздал: 35,22 TB
Поблагодарили: 28634
100%
Откуда: Третий камень от Солнца
ussr.gif
Гринуэй традиционно великолепен. Один из любимых его фильмов.

upd - ответ на сообщение ниже: nnm-270770, знаю, но западающим клавишам на клавиатуре этого не объяснишь:)) Поправила%).

_________________
Чайники выживают в коллапсе.
nnm-270770
Стаж: 9 лет 7 мес.
Сообщений: 142
Ratio: 338,109
100%
Откуда: Москва
ussr.gif
Amentia писал(а): Перейти к сообщению
Гинуэй традиционно великолепен. Один из любимых его фильмов.
Вот только он Гринуэй
:супер!:
shal
Предупреждений: 1
Предупреждений: 1 
Стаж: 9 лет 9 мес.
Сообщений: 1158
Ratio: 10,293
100%
krevedko.png
Не, я кино не догнал. :плач:

_________________
Мы из Советского Союза, прибыли по культурному обмену. Наши знают, где мы. Ищут.
Топик был перенесен из форума Авторское кино в форум Старые Зарубежные Фильмы (HD*Rip/LQ, DVDRip, SATRip, VHSRip)



Исправил релиз - напиши ЛС MAG3131, дав ссылку на релиз.
Если нет ответа 24 часа - нажми на кнопку "Обратить внимание модераторов".
Показать сообщения:   
Начать новую тему   Ответить на тему    Торрент-трекер NNM-Club -> Классика кино и Старые фильмы до 90-х -> Старые Зарубежные Фильмы (HD*Rip/LQ, DVDRip, SATRip, VHSRip) Часовой пояс: GMT + 3
Страница 1 из 1