Классический форум-трекер
canvas not supported
Нас вместе: 4 078 016

Войцек / Woyzeck (1979) BDRip


 
 
RSS
Начать новую тему   Ответить на тему    Торрент-трекер NNM-Club -> Классика кино и Старые фильмы до 90-х -> Старые Зарубежные Фильмы (HD*Rip/LQ, DVDRip, SATRip, VHSRip)
Автор Сообщение
Rulya74 ®
Феникс
Стаж: 9 лет 11 мес.
Сообщений: 1123
Ratio: 305,103
Раздал: 59,64 TB
Поблагодарили: 130554
100%
ukraine.gif
Войцек / Woyzeck (1979) BDRip

Год выпуска: 1979
Жанр: Драма
Выпущено: Германия (ФРГ)

Описание фильма: Экранизация известной пьесы драматурга-романтика Георга Бюхнера, в основе которой реальная история рядового Иоганна Христиана Войцека, в приступе ревности убившего свою сожительницу и казненного в Лейпциге в 1824 году. Hаиболее камерный фильм Херцога, сконцентрированный на теме подавления человеческой личности, которое приводит к неожиданному взрыву.

Режиссер: Вернер Херцог
Актеры: Клаус Кински, Ева Маттес, Вольфганг Райхман, Вилли Земмельрогге, Йозеф Бирбихлер, Пауль Буриан, Фолькер Прехтель, Дитер Аугустин, Ирма Герман, Вольфганг Бёхлер...

Продолжительность: 01:19:52
Качество видео: BDRip
Перевод: Многоголосый закадровый (профессиональный)
Язык субтитров: Русский, Английский
Вид субтитров: Отдельным файлом



Дата мировой премьеры: 25 мая 1979

Видеокодек: Xvid
Битрейт видео: ~1562 kbps
Размер кадра: 720x432
Аудио #1: 48 kHz, AC3 Dolby Digital, 2/0 (L,R) ch, ~192 kbps | Русский (Многоголосый)
Аудио #2: 48 kHz, AC3 Dolby Digital, 2/0 (L,R) ch, ~192 kbps | Немецкий (Оригинал)

&
Общее
Полное имя : D:\Torrent\Woyzeck.1979.BDRip\Woyzeck.1979.BDRip.avi
Формат : AVI
Формат/Информация : Audio Video Interleave
Размер файла : 1,09 Гбайт
Продолжительность : 1 ч. 19 м.
Общий поток : 1960 Кбит/сек
Название фильма : Woyzeck.1979.BDRip rip by Rulya74
Программа кодирования : VirtualDubModRus 1.5.10.2 (build 2542/release)

Видео
Идентификатор : 0
Формат : MPEG-4 Visual
Профиль формата : Advanced Simple@L5
Параметр BVOP формата : 1
Параметр QPel формата : Нет
Параметр GMC формата : Без точки перехода
Параметр матрицы формата : Выборочная
Режим смешивания : Сжатый битовый поток
Идентификатор кодека : XVID
Идентификатор кодека/Подсказка : XviD
Продолжительность : 1 ч. 19 м.
Битрейт : 1562 Кбит/сек
Ширина : 720 пикселей
Высота : 432 пикселя
Соотношение сторон : 1,667
Частота кадров : 23,976 кадра/сек
Цветовое пространство : YUV
Субдискретизация насыщенности : 4:2:0
Битовая глубина : 8 бит
Тип развёртки : Прогрессивная
Метод сжатия : С потерями
Бит/(Пиксели*Кадры) : 0.209
Размер потока : 892 Мбайт (80%)
Библиотека кодирования : XviD 73

Аудио #1
Идентификатор : 1
Формат : AC-3
Формат/Информация : Audio Coding 3
Расширение режима : CM (complete main)
Параметр Endianness формата : Big
Идентификатор кодека : 2000
Продолжительность : 1 ч. 19 м.
Вид битрейта : Постоянный
Битрейт : 192 Кбит/сек
Каналы : 2 канала
Расположение каналов : Front: L R
Частота : 48,0 КГц
Битовая глубина : 16 бит
Метод сжатия : С потерями
Размер потока : 110 Мбайт (10%)
Выравнивание : Разделение по промежуткам
Продолжительность промежутка : 42 мс. (1,00 видеокадр)
Время предзагрузки промежутка : 500 мс.
Заголовок : Профессиональный (многоголосый закадровый)

Аудио #2
Идентификатор : 2
Формат : AC-3
Формат/Информация : Audio Coding 3
Расширение режима : CM (complete main)
Параметр Endianness формата : Big
Идентификатор кодека : 2000
Продолжительность : 1 ч. 19 м.
Вид битрейта : Постоянный
Битрейт : 192 Кбит/сек
Каналы : 2 канала
Расположение каналов : Front: L R
Частота : 48,0 КГц
Битовая глубина : 16 бит
Метод сжатия : С потерями
Размер потока : 110 Мбайт (10%)
Выравнивание : Разделение по промежуткам
Продолжительность промежутка : 42 мс. (1,00 видеокадр)
Время предзагрузки промежутка : 500 мс.
Заголовок : Оригинал (Немецкий)
Скриншоты:

Время раздачи: с 9:00 до 23:00
[NNM-Club.me]_Woyzeck.1979.BDRip.torrent
 Торрент: Платиновая раздача  Зарегистрирован
 
Скачать


Примагнититься
 Зарегистрирован:   13 Сен 2013 08:05:23
 Размер:   1,09 GB  (
 Рейтинг:   4,7 (Голосов: 20)
 Поблагодарили:   44
 Проверка:   Оформление проверено модератором 13 Сен 2013 20:59:34
Как cкачать  ·  Как раздать  ·  Правильно оформить  ·  Поднять ратио!  
Топик был перенесен из форума Авторское кино в форум Старые Зарубежные Фильмы (HD*Rip/LQ, DVDRip, SATRip, VHSRip)



Исправил релиз - напиши ЛС MAG3131, дав ссылку на релиз.
Если нет ответа 24 часа - нажми на кнопку "Обратить внимание модераторов".
Показать сообщения:   
Начать новую тему   Ответить на тему    Торрент-трекер NNM-Club -> Классика кино и Старые фильмы до 90-х -> Старые Зарубежные Фильмы (HD*Rip/LQ, DVDRip, SATRip, VHSRip) Часовой пояс: GMT + 3
Страница 1 из 1