Классический форум-трекер
canvas not supported
Нас вместе: 4 077 708

Большой / Big (1988) BDRip


 
 
RSS
Начать новую тему   Ответить на тему    Торрент-трекер NNM-Club -> Классика кино и Старые фильмы до 90-х -> Старые Зарубежные Фильмы (HD*Rip/LQ, DVDRip, SATRip, VHSRip)
Автор Сообщение
anton966 ®
Стаж: 9 лет 11 мес.
Сообщений: 1234
Ratio: 1232,545
Поблагодарили: 60008
100%
Откуда: Saint-Pet​ersburg​
russia.gif
Большой / Big (1988) BDRip
Жанр: Комедия

Описание:
12-летний мальчишка очень хочет стать большим, и вот его желание сбывается. Он как бы вселяется в тело 30-летнего мужчины, каким он будет еще через много лет. Этот взрослый ребенок делает головокружительную карьеру в бизнесе игрушек - в большом игрушечном магазине, любимом детище бизнесмена Лоджа. Однако природа берет свое. Быть большим хорошо, но пропустить детство тоже не хочется. Чудесная, добрая фантазия. (Иванов М.)

Режиссер: Пенни Маршалл / Penny Marshall/
Актеры: Том Хэнкс / Tom Hanks/, Элизабет Перкинс / Elizabeth Perkins/, Джон Херд / John Heard/, Джэред Раштон / Jared Rushton/, Роберт Лоджиа / Robert Loggia/, Мерседес Руэл / Mercedes Ruehl/, Джош Кларк / Josh Clark/, Джон Ловитц /Jon Lovitz/, Дэвид Москоу /David Moscow/, Кимберли Дэвис /Kimberly Davis/

Продолжительность: 01:44:12
Перевод: Авторский (одноголосый) Алексей Михалев + Андрей Гаврилов
Оригинальный аудиопоток: английский
Субтитры: отсутствуют


Дата мировой премьеры: 3 июня 1988 (США)

СЭМПЛ

Торрент перезалит! Новый видео файл с правильным АР!

Качество: BDRip / Исходник: BDRemux 1080p (MaLLIeHbKa)
Формат: AVI
Видео: 704x384 (1.83:1), 23.976 fps, XviD build 65 ~1795 kbps avg, 0.28 bit/pixel
Аудио#1: 48 kHz, AC3 Dolby Digital, 2/0 (L,R) ch, ~192.00 kbps avg - Михалев
Аудио#2: 48 kHz, AC3 Dolby Digital, 2/0 (L,R) ch, ~192.00 kbps avg - Гаврилов
Аудио#3: 48 kHz, AC3 Dolby Digital, 2/0 (L,R) ch, ~192.00 kbps avg - Оригинальная
Формат : AVI
Формат/Информация : Audio Video Interleave
Размер файла : 1,74 Гбайт
Продолжительность : 1 ч. 44 м.
Общий поток : 2392 Кбит/сек
Программа кодирования : VirtualDubMod 1.5.10.3 | www.virtualdub-fr.org || (build 2550/release)
Библиотека кодирования : VirtualDubMod build 2550/release

Видео
Идентификатор : 0
Формат : MPEG-4 Visual
Профиль формата : Advanced Simple@L5
Параметр BVOP формата : 1
Параметр QPel формата : Нет
Параметр GMC формата : Без точки перехода
Параметр матрицы формата : Выборочная
Идентификатор кодека : XVID
Идентификатор кодека/Подсказка : XviD
Продолжительность : 1 ч. 44 м.
Битрейт : 1796 Кбит/сек
Ширина : 704 пикселя
Высота : 384 пикселя
Соотношение сторон : 1,85:1
Частота кадров : 23,976 кадра/сек
Цветовое пространство : YUV
Субдискретизация насыщенности : 4:2:0
Битовая глубина : 8 бит
Тип развёртки : Прогрессивная
Метод сжатия : С потерями
Бит/(Пиксели*Кадры) : 0.277
Размер потока : 1,31 Гбайт (75%)
Библиотека кодирования : XviD 65

Аудио #1
Идентификатор : 1
Формат : AC-3
Формат/Информация : Audio Coding 3
Расширение режима : CM (complete main)
Параметр Endianness формата : Big
Идентификатор кодека : 2000
Продолжительность : 1 ч. 44 м.
Вид битрейта : Постоянный
Битрейт : 192 Кбит/сек
Каналы : 2 канала
Расположение каналов : Front: L R
Частота : 48,0 КГц
Битовая глубина : 16 бит
Метод сжатия : С потерями
Размер потока : 143 Мбайт (8%)
Выравнивание : Разделение по промежуткам
Продолжительность промежутка : 42 мс. (1,00 видеокадр)
Время предзагрузки промежутка : 500 мс.

Аудио #2
Идентификатор : 2
Формат : AC-3
Формат/Информация : Audio Coding 3
Расширение режима : CM (complete main)
Параметр Endianness формата : Big
Идентификатор кодека : 2000
Продолжительность : 1 ч. 44 м.
Вид битрейта : Постоянный
Битрейт : 192 Кбит/сек
Каналы : 2 канала
Расположение каналов : Front: L R
Частота : 48,0 КГц
Битовая глубина : 16 бит
Метод сжатия : С потерями
Размер потока : 143 Мбайт (8%)
Выравнивание : Разделение по промежуткам
Продолжительность промежутка : 42 мс. (1,00 видеокадр)
Время предзагрузки промежутка : 500 мс.

Аудио #3
Идентификатор : 3
Формат : AC-3
Формат/Информация : Audio Coding 3
Расширение режима : CM (complete main)
Параметр Endianness формата : Big
Идентификатор кодека : 2000
Продолжительность : 1 ч. 44 м.
Вид битрейта : Постоянный
Битрейт : 192 Кбит/сек
Каналы : 2 канала
Расположение каналов : Front: L R
Частота : 48,0 КГц
Битовая глубина : 16 бит
Метод сжатия : С потерями
Размер потока : 143 Мбайт (8%)
Выравнивание : Разделение по промежуткам
Продолжительность промежутка : 42 мс. (1,00 видеокадр)
Время предзагрузки промежутка : 500 мс.




Примечание: Спасибо серый75 и hero1n за дорожки с Михалевым и Гавриловым!!!! Синхронизировано и сведено с помощью Sony Vegas и VirtualDubMod.

Время раздачи: 24/7 Почти всегда
Big (Mihalev, Gavrilov, Eng) (BDRip)_[nnm-club.ru].torrent
 Торрент: Платиновая раздача  Зарегистрирован
 
Скачать


Примагнититься
 Зарегистрирован:   14 Апр 2019 07:24:00
 Размер:   1,74 GB  (
 Рейтинг:   5 (Голосов: 60)
 Поблагодарили:   205
 Проверка:   Оформление проверено модератором 14 Апр 2019 07:27:22
Как cкачать  ·  Как раздать  ·  Правильно оформить  ·  Поднять ратио!  

_________________
17 И предал я сердце мое тому, чтобы познать мудрость и познать безумие и глупость: узнал, что и это — томление духа; Еккл 7:25
18 потому что во многой мудрости много печали; и кто умножает познания, умножает скорбь. 2Мак 9:11
vasilekspb
Стаж: 9 лет 9 мес.
Сообщений: 60
Ratio: 2,51
Раздал: 2,462 TB
Поблагодарили: 213
27.88%
Откуда: Санкт-Петербург
russia.gif
классный фильм
anton966 ®
Стаж: 9 лет 11 мес.
Сообщений: 1234
Ratio: 1232,545
Поблагодарили: 60008
100%
Откуда: Saint-Pet​ersburg​
russia.gif
vasilekspb
Согласен.
smaster67
Модератор Видео
Покровитель талантов Uploader 300+
Стаж: 10 лет 2 мес.
Сообщений: 7117
Ratio: 225,434
Поблагодарили: 215293
100%
anton966 ®
Стаж: 9 лет 11 мес.
Сообщений: 1234
Ratio: 1232,545
Поблагодарили: 60008
100%
Откуда: Saint-Pet​ersburg​
russia.gif
Торрент перезалит.

_________________
17 И предал я сердце мое тому, чтобы познать мудрость и познать безумие и глупость: узнал, что и это — томление духа; Еккл 7:25
18 потому что во многой мудрости много печали; и кто умножает познания, умножает скорбь. 2Мак 9:11
velon
Стаж: 11 лет
Сообщений: 35
Ratio: 7,172
6.92%
russia.gif
а где скорость?
dimidrol80
Стаж: 10 лет 4 мес.
Сообщений: 138
Ratio: 8,968
100%
russia.gif
Один из моих самых любимых фильмов. Забираю)
shunin1970
Стаж: 9 лет 2 мес.
Сообщений: 21
Ratio: 9,183
Раздал: 632 GB
100%
russia.gif
Фильм классный, жаль что перевод одноголосый авторский. Предпочитаю дубляж.
anton966 ®
Стаж: 9 лет 11 мес.
Сообщений: 1234
Ratio: 1232,545
Поблагодарили: 60008
100%
Откуда: Saint-Pet​ersburg​
russia.gif
shunin1970 писал(а):
Предпочитаю дубляж.

Хм.. 1970 это год рождения? Если да, то очень странное предпочтение.

_________________
17 И предал я сердце мое тому, чтобы познать мудрость и познать безумие и глупость: узнал, что и это — томление духа; Еккл 7:25
18 потому что во многой мудрости много печали; и кто умножает познания, умножает скорбь. 2Мак 9:11
QvaZ
Стаж: 10 лет
Сообщений: 57
Ratio: 20,224
Поблагодарили: 5
100%
russia.gif
Подскажите как называется мелодия, которую исполняют в магазине игрушек?
R.Lejik
Стаж: 9 лет 2 мес.
Сообщений: 14
Ratio: 4,054
100%
Откуда: Minsk
belarus.gif
Супер!!!
Показать сообщения:   
Начать новую тему   Ответить на тему    Торрент-трекер NNM-Club -> Классика кино и Старые фильмы до 90-х -> Старые Зарубежные Фильмы (HD*Rip/LQ, DVDRip, SATRip, VHSRip) Часовой пояс: GMT + 3
Страница 1 из 1