Классический форум-трекер
canvas not supported
Нас вместе: 4 079 074

Major / Major 1st Season / Мэйджор [ТВ-1] (2004, 26) [Raw]


 
 
RSS
Начать новую тему   Ответить на тему    Торрент-трекер NNM-Club -> Аниме с субтитрами -> Аниме (SD)
Автор Сообщение
Balenok ®
Uploader 100+
 
Стаж: 9 лет 3 мес.
Сообщений: 682
Ratio: 750,638
Раздал: 141,9 TB
Поблагодарили: 5107
100%
roody.gif
Major / Major 1st Season / Мэйджор [ТВ-1]
Жанр: комедия, драма, спорт
Тип: TV-сериал
Количество серий: 26
Продолжительность: 25 мин.
Период выхода: 13.11.2004 по 21.05.2005
Производство/студия: Studio Hibari
Автор оригинала: Мицуда Такуя
Режиссер: Касай Кэнъити

Битрейт видео: ~~1423 кб\с
Размер кадра: 704x396
Качество видео: DVDRip
Аудио: WMA, 48KHz, 191 кб\с
Звук: Японский
Тип субтитров: Raw
Язык подключаемых субтитров: Русский


Описание:
Сигэхару Хонда — начинающий бэттер Высшей лиги. Его сын Горо — питчер Младшей лиги, надеющийся однажды пойти по стопам отца. Момоко Хосино — учительница Горо и первая женщина, к которой его отец проявил интерес со времени смерти своей жены. Судьбы этих троих переплетутся, когда отец и сын станут испытывать радость побед и горечь поражений на поприще бейсбола. И они продолжат следовать за своей мечтой, что бы ни случилось.
01. Goro's Dream and Daddy's Dream
02. Their Friendship
03. I Hate You, Daddy!
04. A Birthday One Day Late
05. The Man From the Majors
06. Farewell...
07. Goro Honda, Age Nine!
08. Team Complete!
09. Alone on the Mound
10. Showdown in the Rain
11. The Team Dad Played On
12. An Invitation From Gibson
13. Summer! Baseball! Training Camp!
14. Reckless Practice Match!
15. The Coach's Feelings
16. Yameta!
17. Tournament begins!
18. Aim for victory!
19. Mother's happiness
20. Goro's mistake!?
21. This is basebell!
22. The night before the match
23. Do not lose!
24. Chase it! Ovecome it!
25. Everyone together
26. Don't say goodbye
Код:
Общее
Полное имя                               : [Zero-Raws] Major 1st Season - 01 (704x396 WMV9 24fps DVD).wmv
Формат                                   : Windows Media
Размер файла                             : 188 Мбайт
Продолжительность                        : 25 м.
Режим общего битрейта                    : Переменный
Общий поток                              : 1050 Кбит/сек
Максимальный общий битрейт               : 3748 Кбит/сек
Название фильма                          : メジャー MAJOR DVD 第01話 「吾郎の夢、 おとさんの夢」
Трек/Положение                           : 0
Исполнитель                              : aaLPbRVQ8B
Дата кодирования                         : UTC 2005-03-26 08:06:47.496
Примечание                               : 映像:VBR Q93 P80 24fps 音声:VBR192kbps 2Pass 48kHz 24bit

Видео
Идентификатор                            : 2
Формат                                   : VC-1
Профиль формата                          : Main
Идентификатор кодека                     : WMV3
Идентификатор кодека/Информация          : Windows Media Video 9
Идентификатор кодека/Подсказка           : WMV3
Продолжительность                        : 25 м.
Вид битрейта                             : Переменный
Битрейт                                  : 840 Кбит/сек
Ширина                                   : 704 пикселя
Высота                                   : 396 пикселей
Соотношение сторон                       : 16:9
Частота кадров                           : 23,976 кадра/сек
Битовая глубина                          : 8 бит
Тип развёртки                            : Прогрессивная
Метод сжатия                             : С потерями
Бит/(Пиксели*Кадры)                      : 0.126
Размер потока                            : 150 Мбайт (80%)
Язык                                     : Japanese

Аудио
Идентификатор                            : 1
Формат                                   : WMA
Профиль формата                          : Pro
Идентификатор кодека                     : 162
Идентификатор кодека/Информация          : Windows Media Audio
Описание кодека                          : Windows Media Audio 9.1 Professional - 192 kbps, 48 kHz, 2 channel 24 bit 2-pass VBR
Продолжительность                        : 25 м.
Вид битрейта                             : Переменный
Битрейт                                  : 191 Кбит/сек
Каналы                                   : 2 канала
Частота                                  : 48,0 КГц
Битовая глубина                          : 24 бит
Размер потока                            : 34,2 Мбайт (18%)
Язык                                     : Japanese
Ссылки:
WorldArt
AniDB

Скриншоты:


Время раздачи: круглосуточно
[NNM-Club.ru]_Myeydzhor TV-1.torrent
 Торрент: Платиновая раздача  Зарегистрирован
 
Скачать


 Зарегистрирован:   25 Авг 2010 18:08:37
 Размер:   6,39 GB  (
 Рейтинг:   4,7 (Голосов: 14)
 Поблагодарили:   18
 Проверка:   Оформление проверено модератором 25 Авг 2010 23:13:46
Как cкачать  ·  Как раздать  ·  Правильно оформить  ·  Поднять ратио!  
sacredsacred
 
Стаж: 11 лет 8 мес.
Сообщений: 758
Ratio: 1,797
100%
Откуда: SPb
интересно кого-нить на все сезоны хватило...
Balenok ®
Uploader 100+
 
Стаж: 9 лет 3 мес.
Сообщений: 682
Ratio: 750,638
Раздал: 141,9 TB
Поблагодарили: 5107
100%
roody.gif
Да :) я все 5 сезонов посмотрел и жду пока 6-ой закончится :)

На вкус и цвет товарищей нет но мне лично сериал очень понравился до этого никогда не смотрел жанр спорт. После него стал обращать внимание и на спортивные аниме ;)
ichikosan
Стаж: 8 лет 10 мес.
Сообщений: 1
Ratio: 2,509
0%
witch.png
меня хватить должно
Aentin
Стаж: 9 лет 8 мес.
Сообщений: 10
Ratio: 10,757
100%
ukraine.gif
Хей, люди Наруто и ВанПис смотрят, а там со счёта в сезонах сбиться можно =) А тут каких-то 150 серий. Даже принц тенниса и айшил 21 в этих пределах, а уж их посмотрело изрядно народу...

P.S. Классное анимэ, правда поражений многовато =) Привык по другим спортам что 2-3 не более =)
хИНАРИх
Uploader 100+
Стаж: 2 года 9 мес.
Сообщений: 237
Ratio: 10K
Раздал: 160,3 TB
Поблагодарили: 4702
100%
roody.gif
Major Complete Collection (6 Сезонов + Фильм + 2 OVA
Показать сообщения:   
Начать новую тему   Ответить на тему    Торрент-трекер NNM-Club -> Аниме с субтитрами -> Аниме (SD) Часовой пояс: GMT + 3
Страница 1 из 1