Классический форум-трекер
canvas not supported
Нас вместе: 4 079 073

VA - Liquicity Memoirs (2015) [FLAC|Lossless] <Drum & Bass, Liquid>


 
 
RSS
Начать новую тему   Ответить на тему    Торрент-трекер NNM-Club -> Electronic -> Drum'n'Bass, Jungle, Breaks, Breakbeat, Dubstep (Lossless)
Автор Сообщение
Fraudy ®
Стаж: 9 лет 9 мес.
Сообщений: 2178
Ratio: 140,374
Раздал: 51,08 TB
Поблагодарили: 58010
100%
ussr.gif
VA - Liquicity Memoirs (2015)
Год: 2015
Жанр: Drum & Bass, Liquid
Лейбл: Liquicity Records
Каталог#: LIQUICITYCOMP005
Продолжительность: 01:16:16

Кодек: FLAC
Битрейт: Lossless
Тип рипа: tracks+.Cue+log

Треклист:
01. Memro - Trick Of The Tail (02:56)
02. Mediks - Blown Away (ft. Astronaut) (02:12)
03. Maduk - Levitate (02:34)
04. Netsky - I Refuse (02:56)
05. Fred V - Paradise (01:50)
06. Feint - Laurence (01:28)
07. Indivision & Echo Inada - Around the World (01:50)
08. John B - Numbers (Camo & Krooked Remix) (02:34)
09. Rameses B - Visionary (02:00)
10. Maduk - Take You There (02:34)
11. Matrix & Futurebound - Move On (ft. Cat Knight) (02:17)
12. Fred V - In My Head (02:34)
13. Maduk - Never Again (02:12)
14. Hybrid Minds - I'm Through (02:12)
15. Stan SB - Anyone Out There (02:33)
16. Feint - Promises (02:12)
17. Druid - The Power (02:12)
18. Jakwob - Blinding (Hybrid Minds Remix) (02:12)
19. Rameses B - Drift Away (ft. Veela) (02:11)
20. Rameses B - Dreaming (ft. Holly Drummond) (01:51)
21. Woody - Bandit (02:12)
22. Nct - Frozen In Time (ft. Andreas Ort & Charline) (02:55)
23. Maduk & Veela - Ghost Assassin (VIP) (02:34)
24. Qbig - Sleepless (02:11)
25. Dimension - Delight (02:34)
26. TwoThirds & Feint - Epiphany (ft. Veela) (03:39)
27. Feint - Horizons (ft. Veela) (03:17)
28. Feint - The Journey (ft. Veela) (03:39)
29. Camo & Krooked - Nothing Is Older Than Yesterday (02:34)
30. Rameses B - Memoirs (VIP) (05:21)
Код:

REM GENRE "Drum & Bass"
REM DATE 2015
REM DISCNUMBER 1
REM TOTALDISCS 1
REM DISCID CB11DC1E
PERFORMER "Various Artists"
TITLE "Liquicity Memoirs"
FILE "01. Memro - Trick Of The Tail.flac" WAVE
  TRACK 01 AUDIO
    TITLE "Trick Of The Tail"
    PERFORMER "Memro"
    INDEX 01 00:00:00
FILE "02. Mediks - Blown Away (Ft. Astronaut).flac" WAVE
  TRACK 02 AUDIO
    TITLE "Blown Away (ft. Astronaut)"
    PERFORMER "Mediks"
    INDEX 01 00:00:00
FILE "03. Maduk - Levitate.flac" WAVE
  TRACK 03 AUDIO
    TITLE "Levitate"
    PERFORMER "Maduk"
    INDEX 01 00:00:00
FILE "04. Netsky - I Refuse.flac" WAVE
  TRACK 04 AUDIO
    TITLE "I Refuse"
    PERFORMER "Netsky"
    INDEX 01 00:00:00
FILE "05. Fred V - Paradise.flac" WAVE
  TRACK 05 AUDIO
    TITLE "Paradise"
    PERFORMER "Fred V"
    INDEX 01 00:00:00
FILE "06. Feint - Laurence.flac" WAVE
  TRACK 06 AUDIO
    TITLE "Laurence"
    PERFORMER "Feint"
    INDEX 01 00:00:00
FILE "07. Indivision & Echo Inada - Around The World.flac" WAVE
  TRACK 07 AUDIO
    TITLE "Around the World"
    PERFORMER "Indivision & Echo Inada"
    INDEX 01 00:00:00
FILE "08. John B - Numbers (Camo & Krooked Remix).flac" WAVE
  TRACK 08 AUDIO
    TITLE "Numbers (Camo & Krooked Remix)"
    PERFORMER "John B"
    INDEX 01 00:00:00
FILE "09. Rameses B - Visionary.flac" WAVE
  TRACK 09 AUDIO
    TITLE "Visionary"
    PERFORMER "Rameses B"
    INDEX 01 00:00:00
FILE "10. Maduk - Take You There.flac" WAVE
  TRACK 10 AUDIO
    TITLE "Take You There"
    PERFORMER "Maduk"
    INDEX 01 00:00:00
FILE "11. Matrix & Futurebound - Move On (Ft. Cat Knight).flac" WAVE
  TRACK 11 AUDIO
    TITLE "Move On (ft. Cat Knight)"
    PERFORMER "Matrix & Futurebound"
    INDEX 01 00:00:00
FILE "12. Fred V - In My Head.flac" WAVE
  TRACK 12 AUDIO
    TITLE "In My Head"
    PERFORMER "Fred V"
    INDEX 01 00:00:00
FILE "13. Maduk - Never Again.flac" WAVE
  TRACK 13 AUDIO
    TITLE "Never Again"
    PERFORMER "Maduk"
    INDEX 01 00:00:00
FILE "14. Hybrid Minds - I'm Through.flac" WAVE
  TRACK 14 AUDIO
    TITLE "I'm Through"
    PERFORMER "Hybrid Minds"
    INDEX 01 00:00:00
FILE "15. Stan Sb - Anyone Out There.flac" WAVE
  TRACK 15 AUDIO
    TITLE "Anyone Out There"
    PERFORMER "Stan SB"
    INDEX 01 00:00:00
FILE "16. Feint - Promises.flac" WAVE
  TRACK 16 AUDIO
    TITLE "Promises"
    PERFORMER "Feint"
    INDEX 01 00:00:00
FILE "17. Druid - The Power.flac" WAVE
  TRACK 17 AUDIO
    TITLE "The Power"
    PERFORMER "Druid"
    INDEX 01 00:00:00
FILE "18. Jakwob - Blinding (Hybrid Minds Remix).flac" WAVE
  TRACK 18 AUDIO
    TITLE "Blinding (Hybrid Minds Remix)"
    PERFORMER "Jakwob"
    INDEX 01 00:00:00
FILE "19. Rameses B - Drift Away (Ft. Veela).flac" WAVE
  TRACK 19 AUDIO
    TITLE "Drift Away (ft. Veela)"
    PERFORMER "Rameses B"
    INDEX 01 00:00:00
FILE "20. Rameses B - Dreaming (Ft. Holly Drummond).flac" WAVE
  TRACK 20 AUDIO
    TITLE "Dreaming (ft. Holly Drummond)"
    PERFORMER "Rameses B"
    INDEX 01 00:00:00
FILE "21. Woody - Bandit.flac" WAVE
  TRACK 21 AUDIO
    TITLE "Bandit"
    PERFORMER "Woody"
    INDEX 01 00:00:00
FILE "22. Nct - Frozen In Time (Ft. Andreas Ort & Charline).flac" WAVE
  TRACK 22 AUDIO
    TITLE "Frozen In Time (ft. Andreas Ort & Charline)"
    PERFORMER "Nct"
    INDEX 01 00:00:00
FILE "23. Maduk & Veela - Ghost Assassin (Vip).flac" WAVE
  TRACK 23 AUDIO
    TITLE "Ghost Assassin (VIP)"
    PERFORMER "Maduk & Veela"
    INDEX 01 00:00:00
FILE "24. Qbig - Sleepless.flac" WAVE
  TRACK 24 AUDIO
    TITLE "Sleepless"
    PERFORMER "Qbig"
    INDEX 01 00:00:00
FILE "25. Dimension - Delight.flac" WAVE
  TRACK 25 AUDIO
    TITLE "Delight"
    PERFORMER "Dimension"
    INDEX 01 00:00:00
FILE "26. Twothirds & Feint - Epiphany (Ft. Veela).flac" WAVE
  TRACK 26 AUDIO
    TITLE "Epiphany (ft. Veela)"
    PERFORMER "TwoThirds & Feint"
    INDEX 01 00:00:00
FILE "27. Feint - Horizons (Ft. Veela).flac" WAVE
  TRACK 27 AUDIO
    TITLE "Horizons (ft. Veela)"
    PERFORMER "Feint"
    INDEX 01 00:00:00
FILE "28. Feint - The Journey (Ft. Veela).flac" WAVE
  TRACK 28 AUDIO
    TITLE "The Journey (ft. Veela)"
    PERFORMER "Feint"
    INDEX 01 00:00:00
FILE "29. Camo & Krooked - Nothing Is Older Than Yesterday.flac" WAVE
  TRACK 29 AUDIO
    TITLE "Nothing Is Older Than Yesterday"
    PERFORMER "Camo & Krooked"
    INDEX 01 00:00:00
FILE "30. Rameses B - Memoirs (Vip).flac" WAVE
  TRACK 30 AUDIO
    TITLE "Memoirs (VIP)"
    PERFORMER "Rameses B"
    INDEX 01 00:00:00

YouTube
Время раздачи: До 5 сидов ※


Поглощение/вытеснение
Только с согласия релизера

Pashketan
[NNM-Club.me]_VA - Liquicity Memoirs - 2015 - FLAC.torrent
 Торрент: Платиновая раздача  Зарегистрирован
 
Скачать


Примагнититься
 Зарегистрирован:   22 Апр 2015 13:50:30
 Размер:   557 MB  (
 Рейтинг:   4,7 (Голосов: 28)
 Поблагодарили:   88
 Проверка:   Оформление проверено модератором 22 Апр 2015 16:59:35
Как cкачать  ·  Как раздать  ·  Правильно оформить  ·  Поднять ратио!  
Загрузка...
Fraudy ®
Стаж: 9 лет 9 мес.
Сообщений: 2178
Ratio: 140,374
Раздал: 51,08 TB
Поблагодарили: 58010
100%
ussr.gif
Отличнейшая вещь по ликвиду нашему, за последнеее время (я надеюсь все знают знают как сделать Mix), рекомендую :)

_________________
Искусство должно принадлежать народу © В.И. Ульянов-Ленин™
Tribler
Стаж: 4 года 8 мес.
Сообщений: 309
Ratio: 1,446
100%
Спасибо-для стрима самое то!....

И люди-уважайте себя-слушайте CD-flac! 21 век на дворе!
Fraudy ®
Стаж: 9 лет 9 мес.
Сообщений: 2178
Ratio: 140,374
Раздал: 51,08 TB
Поблагодарили: 58010
100%
ussr.gif
Tribler писал(а): Перейти к сообщению
Спасибо-для стрима самое то!....

И люди-уважайте себя-слушайте CD-flac! 21 век на дворе!

Поверьте, Вы не отличите Lossless от Lossy, при правильном кодировании, ЦеДе это вообще далекая даль, ЦИФРОВАЯ эпоха однако

_________________
Искусство должно принадлежать народу © В.И. Ульянов-Ленин™
name gqe529er
Стаж: 5 лет 9 мес.
Сообщений: 11
Ratio: 13,303
Поблагодарили: 83
96.43%
Awesome Compilation, Good Mood for incoming summer events. Massive Respect to Fraudy ® lot of thanks for the share. I glad to buy this compilation at Vinyl :D
dve_dve
Стаж: 5 лет 7 мес.
Сообщений: 4
Ratio: 12,712
0.94%
Mixed(((
Fraudy ®
Стаж: 9 лет 9 мес.
Сообщений: 2178
Ratio: 140,374
Раздал: 51,08 TB
Поблагодарили: 58010
100%
ussr.gif
dve_dve писал(а): Перейти к сообщению
Mixed(((
...mmm .cue will help you (easy by CUETools, convert to image+.cue, dont change audio format, lossless will stay in pref.), built .cue in image..... just make it and enjoy =)

_________________
Искусство должно принадлежать народу © В.И. Ульянов-Ленин™
denis-ok
Стаж: 5 лет 1 мес.
Сообщений: 18
Ratio: 46,082
100%
kazakhstan.gif
Есть у кого не сведённый альбом в таком же качестве?!?
Показать сообщения:   
Начать новую тему   Ответить на тему    Торрент-трекер NNM-Club -> Electronic -> Drum'n'Bass, Jungle, Breaks, Breakbeat, Dubstep (Lossless) Часовой пояс: GMT + 3
Страница 1 из 1