Классический форум-трекер
canvas not supported
Нас вместе: 4 076 463

Осьминожки со второго этажа / Chobotnice z druheho patra (1986) DVDRip


 
 
RSS
Начать новую тему   Ответить на тему    Торрент-трекер NNM-Club -> Видео -> Зарубежные Фильмы для детей
Автор Сообщение
ornellit ®
Стаж: 9 лет 9 мес.
Сообщений: 1752
Ratio: 186,054
Поблагодарили: 96337
100%
ukraine.gif
Осьминожки со второго этажа / Chobotnice z druheho patra (1986) DVDRip
Русское название: Осьминожки со второго этажа
Оригинальное название: Chobotnice z druheho patra
Год выпуска: 1986
Жанр: Детский, семейный, приключения
Выпущено: Чехословакия, ФРГ, Bayerischer Rundfunk (BR), Filmove Studio Barrandov, Westdeutscher Rundfunk (WDR)

Описание фильма:
Два чудесных создания, поднятых из морских глубин. Сколько тайн и загадок они принесут с собой в наш мир. Фильм рассказывает про двух осьминожек-пришельцев: Синего и Зеленого. Отдыхая на берегу моря, двое детей вытащили из воды удивительную живую глину, которая могла накапливать энергию. Из глины они вылепили двух осьминогов, наделенных разумом.

Режиссер: Жиндрич Полак
Актеры: Мирослав Махачек, Олдрич Кайзер, Отто Симанек, Властимил Бродский, Франтишек Филиповский, Ондрей Хавелка, Ярослав Мока, Павел Зедничек

Продолжительность: 4 х ~ 00:46:00
Перевод: Двуголосый закадровый



Видеокодек: Xvid
Битрейт видео: ~1398 kb/s
Размер кадра: 704 x 528
Качество видео: DVDRip
Аудиокодек: AC3 2.0
Битрейт аудио: 192 kb/s
Общее
Полное имя : Osminozki.so.vtorogo.etaza.(1-4.serija.iz.4).1986.XviD.DVDRip\Osminozki.so.vtorogo.etaza.(1-2.serija.iz.4).1986.XviD.DVDRip.avi
Формат : AVI
Формат/Информация : Audio Video Interleave
Размер файла : 1,02 Гбайт
Продолжительность : 1 ч. 31 м.
Общий поток : 1594 Кбит/сек
Программа кодирования : VirtualDubMod 1.5.4.1 (build 2178/release)
Библиотека кодирования : VirtualDubMod build 2178/release

Видео
Идентификатор : 0
Формат : MPEG-4 Visual
Профиль формата : Advanced Simple@L5
Параметр BVOP формата : 1
Параметр QPel формата : Нет
Параметр GMC формата : Без точки перехода
Параметр матрицы формата : Выборочная
Идентификатор кодека : XVID
Идентификатор кодека/Подсказка : XviD
Продолжительность : 1 ч. 31 м.
Битрейт : 1395 Кбит/сек
Ширина : 704 пикселя
Высота : 528 пикселей
Соотношение сторон : 4:3
Частота кадров : 25,000 кадров/сек
Цветовое пространство : YUV
Субдискретизация насыщенности : 4:2:0
Битовая глубина : 8 бит
Тип развёртки : Прогрессивная
Метод сжатия : С потерями
Бит/(Пиксели*Кадры) : 0.150
Размер потока : 916 Мбайт (88%)
Библиотека кодирования : XviD 1.2.0.dev47 (UTC 2006-11-01)

Аудио
Идентификатор : 1
Формат : AC-3
Формат/Информация : Audio Coding 3
Расширение режима : CM (complete main)
Параметр Endianness формата : Big
Идентификатор кодека : 2000
Продолжительность : 1 ч. 31 м.
Вид битрейта : Постоянный
Битрейт : 192 Кбит/сек
Каналы : 2 канала
Расположение каналов : Front: L R
Частота : 48,0 КГц
Битовая глубина : 16 бит
Метод сжатия : С потерями
Размер потока : 126 Мбайт (12%)
Выравнивание : Разделение по промежуткам
Продолжительность промежутка : 96 мс. (2,40 видеокадра)
Время предзагрузки промежутка : 96 мс.
Язык : Russian
Скриншоты:


Время раздачи: С 13:00 до 21:00 (до 5 скачавших)
Приятного просмотра!
[NNM-Club.ru]_Osminozki.so.vtorogo.etaza.(1-4.serija.iz.4).1986.XviD.DVDRip.torrent
 Торрент: Платиновая раздача  Зарегистрирован
 
Скачать


Примагнититься
 Зарегистрирован:   04 Июн 2012 01:16:15
 Размер:   2,04 GB  (
 Рейтинг:   5 (Голосов: 68)
 Поблагодарили:   217
 Проверка:   Оформление проверено модератором 04 Июн 2012 13:17:01
Как cкачать  ·  Как раздать  ·  Правильно оформить  ·  Поднять ратио!  
olala272
Стаж: 8 лет 2 мес.
Сообщений: 71
Ratio: 11,918
100%
russia.gif
Один из любимых фильмов моего детства. Своим детям скачаю - надеюсь им понравится.
Aleksseii
Стаж: 8 лет 9 мес.
Сообщений: 15
Ratio: 7,259
100%
ornellit
Спасибо. Давно хотнл показать ребёнку. Фильм детства.
ornellit ®
Стаж: 9 лет 9 мес.
Сообщений: 1752
Ratio: 186,054
Поблагодарили: 96337
100%
ukraine.gif
Aleksseii
пожалуйста
ahelix
Стаж: 6 лет 10 мес.
Сообщений: 7
Ratio: 30,687
100%
Подскажите пожалуйста, здесь все серии!? Есть серии про деревню у дедушки? Спасибо.
PauloCarioca
Стаж: 4 года 8 мес.
Сообщений: 2
Ratio: 8,288
13.33%
самая классная серия из моего детства - когда осьминоги буквально восприняли фразу "Все пополам" и стали мебель распиливать)))
christop
Стаж: 6 лет 8 мес.
Сообщений: 1
Ratio: 7,63
100%
Класс!
sid_john
   
-=trackermaniac=-
 
Стаж: 9 лет 9 мес.
Сообщений: 1219
Ratio: 6,109
Раздал: 28,18 TB
Поблагодарили: 4295
100%
Откуда: из 80-х
ussr.gif
супер посмотрю еще раз!!!
Девушка из душа
Стаж: 9 лет 5 мес.
Сообщений: 73
Ratio: 18,814
100%
cuba.gif
Спасибо! Великолепный фильм из детства!
Aviv_ua
Классик клуба
Стаж: 10 лет
Сообщений: 612
Ratio: 78,602
Раздал: 65,79 TB
Поблагодарили: 7306
100%
Откуда: Апольдо
germany.gif
Да, супер, смотрел его когда был в возрасте моего младшего сына
Показать сообщения:   
Начать новую тему   Ответить на тему    Торрент-трекер NNM-Club -> Видео -> Зарубежные Фильмы для детей Часовой пояс: GMT + 3
Страница 1 из 1