Классический форум-трекер
canvas not supported
Нас вместе: 4 076 761

Сестрица Аленушка и братец Иванушка (1953) DVDRip (Полная реставрация КП)


 
 
RSS
Начать новую тему   Ответить на тему    Торрент-трекер NNM-Club -> Мультфильмы -> Отечественные Мультфильмы для детей
Автор Сообщение
Николай Анатольевич ®
   
Почетный релизер
 
Стаж: 9 лет 7 мес.
Сообщений: 46539
Ratio: 10,32
Раздал: 7,411 TB
Поблагодарили: 2600511
100%
estonia.gif
Сестрица Аленушка и братец Иванушка (1953) DVDRip
Русское название: Сестрица Аленушка и братец Иванушка
Год выпуска: 1953
Производство: СССР, Союзмультфильм
Жанр: Мультфильм

Режиссер: Ольга Ходатаева
Роли озвучивали: Борис Андреев, Мария Бабанова, Вера Орлова, Анатолий Папанов, Георгий Вицин

Описание:
По мотивам русской народной сказки. Не послушался Иванушка своей сестрицы, испил водицы из лужицы, в которой копытце отпечаталось, и превратился в козленочка…


Продолжительность: 00:10:11
Качество видео: DVDRip

Видеокодек: XviD
Битрейт видео: 1850 Кбит/сек
Размер кадра: 704x512
Аудио 1: Русский, AC3, 6 ch, 448 Кбит/с (ремастеринг)
Аудио 2: Русский, AC3, 1 ch, 224 Кбит/с (оригинальная)
Доп. информация: "Крупный план", реставрация изображения и звука
Код:
Общее
Полное имя                               : F:\Раздачи\Раздачи Мультфильмы\Сестрица Аленушка и братец Иванушка (1953) DVDRip (Полная реставрация КП).avi
Формат                                   : AVI
Формат/Информация                        : Audio Video Interleave
Размер файла                             : 184 Мбайт
Продолжительность                        : 10 м.
Общий поток                              : 2531 Кбит/сек
Программа кодирования                    : VirtualDubModRus 1.5.10.2 (build 2542/release)
Библиотека кодирования                   : VirtualDubMod build 2542/release

Видео
Идентификатор                            : 0
Формат                                   : MPEG-4 Visual
Профиль формата                          : Advanced Simple@L5
Параметр BVOP формата                    : 2
Параметр QPel формата                    : Нет
Параметр GMC формата                     : Без точки перехода
Параметр матрицы формата                 : Default (MPEG)
Режим смешивания                         : Сжатый битовый поток
Идентификатор кодека                     : XVID
Идентификатор кодека/Подсказка           : XviD
Продолжительность                        : 10 м.
Битрейт                                  : 1846 Кбит/сек
Ширина                                   : 704 пикселя
Высота                                   : 512 пикселей
Соотношение сторон                       : 1,375
Частота кадров                           : 25,000 кадров/сек
Цветовое пространство                    : YUV
Субдискретизация насыщенности            : 4:2:0
Битовая глубина                          : 8 бит
Тип развёртки                            : Прогрессивная
Метод сжатия                             : С потерями
Бит/(Пиксели*Кадры)                      : 0.205
Размер потока                            : 134 Мбайт (73%)
Библиотека кодирования                   : XviD 1.2.0.dev47 (UTC 2006-11-01)

Аудио #1
Идентификатор                            : 1
Формат                                   : AC-3
Формат/Информация                        : Audio Coding 3
Расширение режима                        : CM (complete main)
Параметр Endianness формата              : Big
Идентификатор кодека                     : 2000
Продолжительность                        : 10 м.
Вид битрейта                             : Постоянный
Битрейт                                  : 448 Кбит/сек
Каналы                                   : 6 каналов
Расположение каналов                     : Front: L C R, Side: L R, LFE
Частота                                  : 48,0 КГц
Битовая глубина                          : 16 бит
Метод сжатия                             : С потерями
Размер потока                            : 32,6 Мбайт (18%)
Выравнивание                             : Разделение по промежуткам
Продолжительность промежутка             : 40  мс. (1,00 видеокадр)
Время предзагрузки промежутка            : 500  мс.

Аудио #2
Идентификатор                            : 2
Формат                                   : AC-3
Формат/Информация                        : Audio Coding 3
Расширение режима                        : CM (complete main)
Параметр Endianness формата              : Big
Идентификатор кодека                     : 2000
Продолжительность                        : 10 м.
Вид битрейта                             : Постоянный
Битрейт                                  : 224 Кбит/сек
Каналы                                   : 1 канал
Расположение каналов                     : Front: C
Частота                                  : 48,0 КГц
Битовая глубина                          : 16 бит
Метод сжатия                             : С потерями
Размер потока                            : 16,3 Мбайт (9%)
Выравнивание                             : Разделение по промежуткам
Продолжительность промежутка             : 40  мс. (1,00 видеокадр)
Время предзагрузки промежутка            : 500  мс.
Скриншоты:


Время раздачи: 9.00 - 23.00 (по мере возможности...)
[NNM-Club.ru]_Sestritsa Alenushka i bratets Ivanushka (1953) DVDRip (Polnaya restavratsiya KP).avi.torrent
 Торрент: Платиновая раздача  Зарегистрирован
 
Скачать


Примагнититься
 Зарегистрирован:   12 Июн 2012 19:39:40
 Размер:   184 MB  (
 Рейтинг:   4,9 (Голосов: 88)
 Поблагодарили:   327
 Проверка:   Оформление проверено модератором 12 Июн 2012 20:43:58
Как cкачать  ·  Как раздать  ·  Правильно оформить  ·  Поднять ратио!  
kolman67
Стаж: 4 года 9 мес.
Сообщений: 273
Ratio: 108,4
Раздал: 14,73 TB
Поблагодарили: 2122
100%
australia.gif
Спасибо !
dima681
Стаж: 8 лет 11 мес.
Сообщений: 6
Ratio: 49,024
5.71%
russia.gif
словно в детство попал спасибо
Suleyman88
Стаж: 7 лет 9 мес.
Сообщений: 27
Ratio: 2,797
Поблагодарили: 492
60.2%
russia.gif
Господа встанте на раздачу
Qwert_2005
 
Стаж: 10 лет 6 мес.
Сообщений: 311
Ratio: 1413,97
Раздал: 110,9 TB
100%
Откуда: да всё оттуда же
russia.gif
Suleyman88 писал(а): Перейти к сообщению
Господа встанте на раздачу

Присоединяюсь
Показать сообщения:   
Начать новую тему   Ответить на тему    Торрент-трекер NNM-Club -> Мультфильмы -> Отечественные Мультфильмы для детей Часовой пояс: GMT + 3
Страница 1 из 1