Классический форум-трекер
canvas not supported
Нас вместе: 4 079 384

Hakaima Sadamitsu / Sadamitsu the Destroyer / Разрушитель Садамицу [2001, TV, 10 эп.] DVDRip 480p Raw


 
 
RSS
Начать новую тему   Ответить на тему    Торрент-трекер NNM-Club -> Аниме с субтитрами -> Аниме (SD)
Автор Сообщение
хИНАРИх ®
Uploader 100+
Стаж: 2 года 9 мес.
Сообщений: 237
Ratio: 10K
Раздал: 160,3 TB
Поблагодарили: 4709
100%
roody.gif
Hakaima Sadamitsu / Sadamitsu the Destroyer / Разрушитель Садамицу
Жанр: приключения, фантастика, меха
Тип: TВ-сериал
Количество серий: 10 из 10
Продолжительность: 10 серий по 25 минут
Период выхода: с 17.01.2001 по 21.03.2001
Производство: Studio DEEN
Автор оригинала: Накахира Масахико
Снято по манге: Hakaima Sadamitsu
Режиссер: Охата Койти
Ссылки: World-Art, Ani-DB, Официальный сайт, ANN, MAL
Описание:

Землю наводнила инопланетная раса - рукейтаи, киборг посланный на землю искоренить враждебных инопланетян в результате схватки получает критические повреждения. В результате чего, миссия по избавлению земли от захватчиков продолжает выполнять местный глава банды по имени Садамицу. Также миссией Садамицу становится предотвращение появления главного противника - Хищника. Но Хищник уже здесь... и причина, по которой он еще не уничтожил Землю, кроется в прошлом самого Садамицу!
Качество видео: DVDRip
Видео: AVC, 8 bit, 640x480, ~1.2 Mbps
Аудио: AAC, 2 ch, 48 kHz, ~128 kbps | Звук: Японский
Субтитры: Русские
Перевод от: [К.Н.А.]


General
Unique ID : 203258428267692105827779443406228545134 (0x98EA263B790B3120F441F7703271DE6E)
Complete name : Hakaima Sadamitsu - 01 [480p].mkv
Format : Matroska
Format version : Version 4
File size : 223 MiB
Duration : 22 min 33 s
Overall bit rate : 1 381 kb/s
Encoded date : UTC 2019-05-04 04:24:49
Writing application : mkvmerge v33.1.0 ('Primrose') 64-bit
Writing library : libebml v1.3.7 + libmatroska v1.5.0

Video
ID : 1
Format : AVC
Format/Info : Advanced Video Codec
Format profile : High@L3
Format settings : CABAC / 6 Ref Frames
Format settings, CABAC : Yes
Format settings, ReFrames : 6 frames
Codec ID : V_MPEG4/ISO/AVC
Duration : 22 min 33 s
Bit rate : 1 250 kb/s
Width : 640 pixels
Height : 480 pixels
Display aspect ratio : 4:3
Frame rate mode : Constant
Frame rate : 29.970 (30000/1001) FPS
Color space : YUV
Chroma subsampling : 4:2:0
Bit depth : 8 bits
Scan type : Progressive
Bits/(Pixel*Frame) : 0.136
Stream size : 202 MiB (91%)
Writing library : x264 core 78
Encoding settings : cabac=1 / ref=6 / deblock=1:1:2 / analyse=0x3:0x133 / me=umh / subme=9 / psy=1 / psy_rd=1.0:1.0 / mixed_ref=1 / me_range=16 / chroma_me=1 / trellis=1 / 8x8dct=1 / cqm=0 / deadzone=21,11 / chroma_qp_offset=-4 / threads=3 / nr=150 / decimate=1 / mbaff=0 / constrained_intra=0 / bframes=10 / b_pyramid=0 / b_adapt=2 / b_bias=0 / direct=3 / wpredb=1 / keyint=300 / keyint_min=30 / scenecut=40 / rc_lookahead=40 / rc=2pass / mbtree=1 / bitrate=1250 / ratetol=1.0 / qcomp=0.60 / qpmin=10 / qpmax=51 / qpstep=4 / cplxblur=20.0 / qblur=0.5 / ip_ratio=1.40 / aq=1:1.00
Language : English
Default : Yes
Forced : No
Color range : Limited
Color primaries : BT.601 NTSC
Transfer characteristics : BT.709
Matrix coefficients : BT.601

Audio
ID : 2
Format : AAC LC
Format/Info : Advanced Audio Codec Low Complexity
Codec ID : A_AAC-2
Duration : 22 min 33 s
Bit rate : 128 kb/s
Channel(s) : 2 channels
Channel layout : L R
Sampling rate : 48.0 kHz
Frame rate : 46.875 FPS (1024 SPF)
Compression mode : Lossy
Stream size : 20.6 MiB (9%)
Language : Japanese
Default : No
Forced : No

Menu
00:00:00.000 : Chapter 1
00:01:35.128 : Chapter 2
00:11:04.697 : Chapter 3
00:20:37.269 : Chapter 4
01. Wanna fight? Bring it on! Enter Sadamitsu
02. Blazing battle! Retrieval complete!
03. A new member! Culon runs wild!
04. A blazing man`s spirit
05. Women are men`s death scythe
06. A cherry blossom is a flower of man`s confusion
07. Man, eat the fist of life
08. Man, sharing an umbrella of tears
09. Man`s love is a love for a struggle to the death
10. Man`s constellation that sparkles in the sky



Время раздачи: круглосуточно
[NNM-Club.me]_Hakaima Sadamitsu - [Razrushitel' Sadamitsu].torrent
 Торрент: Платиновая раздача  Зарегистрирован
 
Скачать


Примагнититься
 Зарегистрирован:   04 Май 2019 11:36:15
 Размер:   2,17 GB  (
 Рейтинг:   4,9 (Голосов: 11)
 Поблагодарили:   19
 Проверка:   Оформление проверено модератором 04 Май 2019 16:33:27
Как cкачать  ·  Как раздать  ·  Правильно оформить  ·  Поднять ратио!  
Показать сообщения:   
Начать новую тему   Ответить на тему    Торрент-трекер NNM-Club -> Аниме с субтитрами -> Аниме (SD) Часовой пояс: GMT + 3
Страница 1 из 1