Классический форум-трекер
canvas not supported
Нас вместе: 4 079 087

Mr. Freaky - One Hour & One (1988) Rare80 Records, 2011 [FLAC|Lossless|image+ .cue]<Italo-Disco>


 
 
RSS
Начать новую тему   Ответить на тему    Торрент-трекер NNM-Club -> Pop -> Disco, Italo-Disco, Euro-Disco, Hi-NRG (Lossless)
Автор Сообщение
Beijing65 ®
Модератор Музыки
RG Music
 
Стаж: 9 лет 1 мес.
Сообщений: 2440
Ratio: 1676,53
Поблагодарили: 127858
100%
Mr. Freaky - One Hour & One (1988)
Год записи: 1988
Год издания: 2011
Жанр: Italo-Disco
Издание: Rare80 Records - RA000527
Источник: s-p-m2009
Продолжительность: 01:08:34

Кодек: FLAC
Битрейт: Lossless|image+ .cue

Треклист:
Super Long Time Power Disco Maxi Megamix
01. Intro
02. Just Dance For Me
03. Out of My Mind
04. Instrumrntal Love
05. Party Tecnology
06. I (My) Love My Life
07. Danger
08. I (My) Love My Live Out Of My Mind
Bonus Track:
09. Out Of My Mind (Extended Version)
Описание:
Авторами и продюсерами этого проекта являются Glenn Miller и Robert Papst, некоторое отношение к нему имел и Mike Mareen.
Название сего творения "One Hour & One" говорит само за себя, т.к. продолжительность его состовляет 1 час и 1 минуту. Изначально CD был отпечатан как один трек "Super Long Time Power Disco Maxi Megamix", но в последствии появился неофициальный треклист:
01. Intro
02. Just Dance For Me
03. Out of My Mind
04. Instrumrntal Love
05. Party Tecnology
06. I (My) Love My Life
07. Danger
08. I (My) Love My Live Out Of My Mind

Альбом был весьма популярен в конце 80-х, даже ходили слухи, что он попал в Книгу рекордов Гиннеса, как самая длинная композиция.
Код: выделить все

Exact Audio Copy V1.0 beta 3 from 29. August 2011

Отчёт EAC об извлечении, выполненном 20. ноября 2011, 19:30

Mr. Freaky / One Hour & One

Дисковод: TSSTcorpCDDVDW SH-S223C   Adapter: 1  ID: 0

Режим чтения                 : Достоверность
Использование точного потока : Да
Отключение кэша аудио        : Да
Использование указателей C2  : Нет

Коррекция смещения при чтении                     : 697
Способность читать области Lead-in и Lead-out     : Нет
Заполнение пропущенных сэмплов тишиной            : Да
Удаление блоков с тишиной в начале и конце        : Нет
При вычислениях CRC использовались нулевые сэмплы : Да
Интерфейс                                         : Встроенный Win32-интерфейс для Win NT/2000

Выходной формат          : Пользовательский кодировщик
Выбранный битрейт        : 768 kBit/s
Качество                 : Высокий
Добавление ID3-тега      : Нет
Утилита сжатия           : C:\Program Files\Exact Audio Copy\FLAC\FLAC.EXE
Дополнительные параметры : -6 -V -T "ARTIST=%artist%" -T "TITLE=%title%" -T "ALBUM=%albumtitle%" -T "DATE=%year%" -T "TRACKNUMBER=%tracknr%" -T "GENRE=%genre%" -T "COMMENT=%comment%" -T "BAND=%albuminterpret%" -T "ALBUMARTIST=%albuminterpret%" -T "COMPOSER=%composer%" %haslyrics%--tag-from-file=LYRICS="%lyricsfile%"%haslyrics% -T "DISCNUMBER=%cdnumber%" -T "TOTALDISCS=%totalcds%" -T "TOTALTRACKS=%numtracks%" %hascover%--picture="%coverfile%"%hascover% %source% -o %dest%

TOC извлечённого CD

     Трек |   Старт  | Длительность | Начальный сектор | Конечный сектор
    ---------------------------------------------------------------------
       1  |  0:00.00 |    1:07.37   |           0      |       5061
       2  |  1:07.37 |    6:36.25   |        5062      |      34786
       3  |  7:43.62 |   10:50.67   |       34787      |      83603
       4  | 18:34.54 |   11:01.00   |       83604      |     133178
       5  | 29:35.54 |    8:33.58   |      133179      |     171711
       6  | 38:09.37 |    6:10.11   |      171712      |     199472
       7  | 44:19.48 |    8:41.66   |      199473      |     238613
       8  | 53:01.39 |    8:15.39   |      238614      |     275777
       9  | 61:17.03 |    7:17.00   |      275778      |     308552

Характеристики диапазона извлечения и сообщения об ошибках

Выбранный диапазон

     Имя файла C:\EAC\Mr. Freaky – One Hour & One (1988 Rare80 Records – RA000527)\Mr. Freaky - One Hour & One.wav

     Пиковый уровень 100.0 %
     Скорость извлечения 3.4 X
     Качество диапазона 100.0 %
     CRC теста D5B4C8C5
     CRC копии D5B4C8C5
     Копирование... OK

Ошибок не произошло

AccurateRip: сводка

Трек  1  отсутствует в базе данных
Трек  2  отсутствует в базе данных
Трек  3  отсутствует в базе данных
Трек  4  отсутствует в базе данных
Трек  5  отсутствует в базе данных
Трек  6  отсутствует в базе данных
Трек  7  отсутствует в базе данных
Трек  8  отсутствует в базе данных
Трек  9  отсутствует в базе данных

Ни одного трека нет в базе AccurateRip

Конец отчёта

==== Контрольная сумма отчёта C107DFD31CCC2302D8CB94691CE40C95B5A2A572B7FE8630E4CA7EE44E811D9F ====

------------------------------------------------------------

Exact Audio Copy V1.0 beta 3 from 29. August 2011

Отчёт EAC об извлечении, выполненном 20. ноября 2011, 19:30

Mr. Freaky / One Hour & One

Дисковод: TSSTcorpCDDVDW SH-S223C   Adapter: 1  ID: 0

Режим чтения                 : Достоверность
Использование точного потока : Да
Отключение кэша аудио        : Да
Использование указателей C2  : Нет

Коррекция смещения при чтении                     : 697
Способность читать области Lead-in и Lead-out     : Нет
Заполнение пропущенных сэмплов тишиной            : Да
Удаление блоков с тишиной в начале и конце        : Нет
При вычислениях CRC использовались нулевые сэмплы : Да
Интерфейс                                         : Встроенный Win32-интерфейс для Win NT/2000

Выходной формат          : Пользовательский кодировщик
Выбранный битрейт        : 768 kBit/s
Качество                 : Высокий
Добавление ID3-тега      : Нет
Утилита сжатия           : C:\Program Files\Exact Audio Copy\FLAC\FLAC.EXE
Дополнительные параметры : -6 -V -T "ARTIST=%artist%" -T "TITLE=%title%" -T "ALBUM=%albumtitle%" -T "DATE=%year%" -T "TRACKNUMBER=%tracknr%" -T "GENRE=%genre%" -T "COMMENT=%comment%" -T "BAND=%albuminterpret%" -T "ALBUMARTIST=%albuminterpret%" -T "COMPOSER=%composer%" %haslyrics%--tag-from-file=LYRICS="%lyricsfile%"%haslyrics% -T "DISCNUMBER=%cdnumber%" -T "TOTALDISCS=%totalcds%" -T "TOTALTRACKS=%numtracks%" %hascover%--picture="%coverfile%"%hascover% %source% -o %dest%

TOC извлечённого CD

     Трек |   Старт  | Длительность | Начальный сектор | Конечный сектор
    ---------------------------------------------------------------------
       1  |  0:00.00 |    1:07.37   |           0      |       5061
       2  |  1:07.37 |    6:36.25   |        5062      |      34786
       3  |  7:43.62 |   10:50.67   |       34787      |      83603
       4  | 18:34.54 |   11:01.00   |       83604      |     133178
       5  | 29:35.54 |    8:33.58   |      133179      |     171711
       6  | 38:09.37 |    6:10.11   |      171712      |     199472
       7  | 44:19.48 |    8:41.66   |      199473      |     238613
       8  | 53:01.39 |    8:15.39   |      238614      |     275777
       9  | 61:17.03 |    7:17.00   |      275778      |     308552

Характеристики диапазона извлечения и сообщения об ошибках

Выбранный диапазон

     Имя файла C:\EAC\Mr. Freaky – One Hour & One (1988 Rare80 Records – RA000527)\Mr. Freaky - One Hour & One.wav

     Пиковый уровень 100.0 %
     Скорость извлечения 3.4 X
     Качество диапазона 100.0 %
     CRC теста D5B4C8C5
     CRC копии D5B4C8C5
     Копирование... OK

Ошибок не произошло

AccurateRip: сводка

Трек  1  отсутствует в базе данных
Трек  2  отсутствует в базе данных
Трек  3  отсутствует в базе данных
Трек  4  отсутствует в базе данных
Трек  5  отсутствует в базе данных
Трек  6  отсутствует в базе данных
Трек  7  отсутствует в базе данных
Трек  8  отсутствует в базе данных
Трек  9  отсутствует в базе данных

Ни одного трека нет в базе AccurateRip

Конец отчёта

==== Контрольная сумма отчёта C107DFD31CCC2302D8CB94691CE40C95B5A2A572B7FE8630E4CA7EE44E811D9F ====
Код: выделить все

-----------------------

DON'T MODIFY THIS FILE

-----------------------

PERFORMER: auCDtect Task Manager, ver. 1.5.1RC4 build 1.5.1.5
Copyright (c) 2008-2010 y-soft. All rights reserved
http://y-soft.org

ANALYZER: auCDtect: CD records authenticity detector, version 0.8.2
Copyright (c) 2004 Oleg Berngardt. All rights reserved.
Copyright (c) 2004 Alexander Djourik. All rights reserved.

FILE: Mr. Freaky - One Hour & One.flac
  Size: 522338648 Hash: EECEB325CC43E5EE2D12F394F28C3C6F Accuracy: -m0
  Conclusion: CDDA 100%
  Signature: B4FB091DBEEF174A0EBDC13FD60BCF37FD07D3F8
YouTube

Время раздачи: С 12:00 до 18:00 и с 20:00 до 08:00 Мск., до 5-ти скачавших


Поглощение/вытеснение
Только с согласия релизера

Beijing65
Mr. Freaky – One Hour & One - 1988 (2011) [NNM-club].torrent
 Торрент: Платиновая раздача  Зарегистрирован
 
Скачать


Примагнититься
 Зарегистрирован:   25 Ноя 2018 12:45:33
 Размер:   498 MB  (
 Рейтинг:   4,5 (Голосов: 10)
 Поблагодарили:   59
 Проверка:   Оформление проверено модератором 25 Ноя 2018 12:47:11
Как cкачать  ·  Как раздать  ·  Правильно оформить  ·  Поднять ратио!  
Загрузка...
Janin75
Стаж: 11 лет 11 мес.
Сообщений: 64
Ratio: 84,647
100%
russia.gif
Как то Грустно такую Тему пропустить. Не поверите. школа 80-е. Мне всего то 10... лет и Брательник ставит Кассету (катушки синхронно, на всякий случай) Диджеили. Вещь. Спасибо!
Показать сообщения:   
Начать новую тему   Ответить на тему    Торрент-трекер NNM-Club -> Pop -> Disco, Italo-Disco, Euro-Disco, Hi-NRG (Lossless) Часовой пояс: GMT + 3
Страница 1 из 1