Классический форум-трекер
canvas not supported
Нас вместе: 4 079 055

Адская девочка / Depraved / Hell Girl (2019) BDRemux [H.264/1080p] [EN / EN Sub]


 
 
RSS
Начать новую тему   Ответить на тему    Торрент-трекер NNM-Club -> Зарубежное кино -> Фильмы в оригинале (HD, UHD, UHD-LQ)
Автор Сообщение
smaster67 ®
Модератор Видео
Покровитель талантов Uploader 300+
Стаж: 10 лет 3 мес.
Сообщений: 7117
Ratio: 225,337
Поблагодарили: 215367
100%
Адская девочка / Depraved / Hell Girl (2019) BDRemux [H.264/1080p] [EN / EN Sub]

Производство: США, Branded Films, Transcendent Entertainment, Tri-Fold Pictures
Жанр: ужасы

Режиссер: Лоуренс Риггинс
Актеры: Джей Хед, Керингтон Пэйн, Тара Вествуд, Бойд Кестнер, Лорен Комптон, Диана Лу, Маша Малинина, Купер Гиллеспи, Майкл Харрисон, Ана Мария Эстрада

Описание:
Группа охотников за паранормальными явлениями, зарабатывающих на обмане доверчивых клиентов, приезжает в полузаброшенный шахтёрский городок, чтобы "развести" очередного простачка-миллионера. Но вскоре они понимают, что на этот раз призрак девочки реально существует, и он поставил целью уничтожить их всех до единого.



Продолжительность: 01:20:36
Качество видео: BDRemux
Перевод: Отсутствует
Язык озвучки: Английский
Субтитры: английские

Видео: AVC/H.264, 1920x1080, 25000 kbps
Аудио №1: английский, DTS-HD MA, 5.1, 2048 kbps
Аудио №2: английский, DTS, 5.1, 768 kbps
Код: выделить все
General
Unique ID                                : 74065463562900281342978879483676450766 (0x37B87D4A1C07CE6AE759DBDA4FABDFCE)
Complete name                            : Depraved.2019.1080p.BluRay.REMUX.AVC.DTS-HD MA 5.1-OMEGA\Depraved.2019.1080p.BluRay.REMUX.AVC.DTS-HD MA 5.1-OMEGA.mkv
Format                                   : Matroska
Format version                           : Version 2
File size                                : 15.7 GiB
Duration                                 : 1 h 20 min
Overall bit rate mode                    : Variable
Overall bit rate                         : 27.8 Mb/s
Movie name                               : Hell Girl
Encoded date                             : UTC 2019-05-03 21:13:34
Writing application                      : MakeMKV v1.14.2 win(x64-release)
Writing library                          : libmakemkv v1.14.2 (1.3.5/1.4.7) win(x64-release)
Original source medium                   : Blu-ray

Video
ID                                       : 1
ID in the original source medium         : 4113 (0x1011)
Format                                   : AVC
Format/Info                              : Advanced Video Codec
Format profile                           : High@L4.1
Format settings, CABAC                   : Yes
Format settings, ReFrames                : 4 frames
Codec ID                                 : V_MPEG4/ISO/AVC
Duration                                 : 1 h 20 min
Bit rate mode                            : Variable
Bit rate                                 : 25.0 Mb/s
Maximum bit rate                         : 35.0 Mb/s
Width                                    : 1 920 pixels
Height                                   : 1 080 pixels
Display aspect ratio                     : 16:9
Frame rate mode                          : Constant
Frame rate                               : 23.976 (24000/1001) FPS
Standard                                 : Component
Color space                              : YUV
Chroma subsampling                       : 4:2:0
Bit depth                                : 8 bits
Scan type                                : Progressive
Bits/(Pixel*Frame)                       : 0.503
Stream size                              : 14.1 GiB (90%)
Writing library                          : x264 core 142
Encoding settings                        : cabac=1 / ref=4 / deblock=1:0:0 / analyse=0x3:0x133 / me=umh / subme=9 / psy=1 / psy_rd=1.00:0.00 / mixed_ref=1 / me_range=24 / chroma_me=1 / trellis=2 / 8x8dct=1 / cqm=2 / deadzone=21,11 / fast_pskip=1 / chroma_qp_offset=-4 / threads=24 / lookahead_threads=2 / sliced_threads=0 / slices=4 / nr=0 / decimate=1 / interlaced=0 / bluray_compat=1 / stitchable=1 / constrained_intra=0 / bframes=3 / b_pyramid=0 / b_adapt=2 / b_bias=0 / direct=3 / weightb=1 / open_gop=0 / weightp=1 / keyint=24 / keyint_min=1 / scenecut=40 / intra_refresh=0 / rc_lookahead=24 / rc=2pass / mbtree=1 / bitrate=25000 / ratetol=1.0 / qcomp=0.60 / qpmin=5 / qpmax=69 / qpstep=4 / cplxblur=20.0 / qblur=0.5 / vbv_maxrate=35000 / vbv_bufsize=30000 / nal_hrd=vbr / filler=0 / ip_ratio=1.40 / aq=1:1.00
Language                                 : English
Default                                  : No
Forced                                   : No
Color range                              : Limited
Color primaries                          : BT.709
Transfer characteristics                 : BT.709
Matrix coefficients                      : BT.709

Audio #1
ID                                       : 2
ID in the original source medium         : 4353 (0x1101)
Format                                   : DTS
Format/Info                              : Digital Theater Systems
Format profile                           : MA / Core
Mode                                     : 16
Format settings, Endianness              : Big
Codec ID                                 : A_DTS
Duration                                 : 1 h 20 min
Bit rate mode                            : Variable / Constant
Bit rate                                 : 2 048 kb/s / 768 kb/s
Channel(s)                               : 6 channels
Channel positions                        : Front: L C R, Side: L R, LFE
Sampling rate                            : 48.0 kHz
Frame rate                               : 93.750 FPS (512 spf)
Bit depth                                : 16 bits
Compression mode                         : Lossless / Lossy
Stream size                              : 1.16 GiB (7%)
Title                                    : Surround 5.1
Language                                 : English
Default                                  : Yes
Forced                                   : No

Audio #2
ID                                       : 3
ID in the original source medium         : 4353 (0x1101)
Format                                   : DTS
Format/Info                              : Digital Theater Systems
Mode                                     : 16
Format settings, Endianness              : Big
Codec ID                                 : A_DTS
Duration                                 : 1 h 20 min
Bit rate mode                            : Constant
Bit rate                                 : 768 kb/s
Channel(s)                               : 6 channels
Channel positions                        : Front: L C R, Side: L R, LFE
Sampling rate                            : 48.0 kHz
Frame rate                               : 93.750 FPS (512 spf)
Bit depth                                : 16 bits
Compression mode                         : Lossy
Stream size                              : 443 MiB (3%)
Title                                    : Surround 5.1
Language                                 : English
Default                                  : No
Forced                                   : No

Text
ID                                       : 4
ID in the original source medium         : 4608 (0x1200)
Format                                   : PGS
Codec ID                                 : S_HDMV/PGS
Codec ID/Info                            : Picture based subtitle format used on BDs/HD-DVDs
Duration                                 : 35 min
Bit rate                                 : 805 b/s
Count of elements                        : 36
Stream size                              : 211 KiB (0%)
Language                                 : English
Default                                  : No
Forced                                   : No

Menu
00:00:00.000                             : en:Chapter 01
00:08:51.656                             : en:Chapter 02
00:16:03.796                             : en:Chapter 03
00:23:59.104                             : en:Chapter 04
00:33:57.660                             : en:Chapter 05
00:41:41.749                             : en:Chapter 06
00:52:15.465                             : en:Chapter 07
00:58:57.534                             : en:Chapter 08
01:06:08.172                             : en:Chapter 09
01:14:24.501                             : en:Chapter 10

Скриншоты:



Все одноименные релизы в Клубе

Время раздачи: с 13:00 до 23:00
[NNM-Club.me]_Depraved.2019.1080p.BluRay.REMUX.AVC.DTS-HD MA 5.1-OMEGA.mkv.torrent
 Торрент: Платиновая раздача  Зарегистрирован
 
Скачать


Примагнититься
 Зарегистрирован:   05 Май 2019 22:05:53
 Размер:   15,7 GB  (
 Рейтинг:    (Голосов: 6)
 Поблагодарили:   21
 Проверка:   Оформление проверено модератором 05 Май 2019 22:07:02
Как cкачать  ·  Как раздать  ·  Правильно оформить  ·  Поднять ратио!  
R!CH LB
Uploader 300+
Стаж: 12 лет 5 мес.
Сообщений: 328
Ratio: 75,239
Поблагодарили: 620
100%
Откуда: Москва
russia.gif
Посмотрел на размер и... решил не качать...
Показать сообщения:   
Начать новую тему   Ответить на тему    Торрент-трекер NNM-Club -> Зарубежное кино -> Фильмы в оригинале (HD, UHD, UHD-LQ) Часовой пояс: GMT + 3
Страница 1 из 1