Классический форум-трекер
canvas not supported
Нас вместе: 4 083 826
Платим за отзывы

Штормовой мальчик / Storm Boy (2019) BDRemux [H.264/1080p] [EN / EN Sub]


 
 
RSS
Начать новую тему   Ответить на тему    Торрент-трекер NNM-Club -> Зарубежное кино -> Фильмы в оригинале (HD, UHD, UHD-LQ)
Автор Сообщение
smaster67 ®
Модератор Видео
Покровитель талантов Uploader 300+
Стаж: 10 лет 5 мес.
Сообщений: 7117
Ratio: 223,722
Поблагодарили: 215515
100%
Штормовой мальчик / Storm Boy (2019) BDRemux [H.264/1080p] [EN / EN Sub]

Производство: Австралия, Ambience Entertainment, Best FX Adelaide
Жанр: драма, приключения, семейный

Режиссер: Шон Сит
Актеры: Джай Кортни, Джеффри Раш, Дэвид Галпилил, Эрик Томсон, Симона Аннан, Шанталь Контури, Моргана Дейвис, Финн Литтл, Тревор Джемисон, Дэвид Джон Кларк, Пол Блэкуэлл

Описание:
Майкл Кингли, некогда успешный бизнесмен, а теперь пенсионер, рассказывает своей внучке историю о том, как в детстве он спас и вырастил необычайного пеликана, мистера Персиваля. Их удивительные приключения и особая связь оказали глубокое влияние на всю его жизнь.



Продолжительность: 01:38:56
Качество видео: BDRemux
Перевод: Отсутствует
Язык озвучки: Английский
Субтитры: английские

Видео: AVC/H.264, 1920x1080, 24774 kbps
Аудио: английский, DTS-HD MA, 5.1, 3977 kbps
Код: выделить все
General
Unique ID                                : 212794666104738118937494837916386833088 (0xA016C30EDF9645D282B6BCB1C065B2C0)
Complete name                            : Storm.Boy.2019.BluRay.REMUX.1080p.AVC.DTS-HD.MA5.1-iFT.mkv
Format                                   : Matroska
Format version                           : Version 4 / Version 2
File size                                : 19.9 GiB
Duration                                 : 1 h 38 min
Overall bit rate mode                    : Variable
Overall bit rate                         : 28.8 Mb/s
Encoded date                             : UTC 2019-05-06 18:48:51
Writing application                      : mkvmerge v33.1.0 ('Primrose') 64-bit
Writing library                          : libebml v1.3.7 + libmatroska v1.5.0

Video
ID                                       : 1
Format                                   : AVC
Format/Info                              : Advanced Video Codec
Format profile                           : High@L4.1
Format settings, CABAC                   : Yes
Format settings, ReFrames                : 4 frames
Codec ID                                 : V_MPEG4/ISO/AVC
Duration                                 : 1 h 38 min
Bit rate mode                            : Variable
Bit rate                                 : 24.8 Mb/s
Maximum bit rate                         : 32.0 Mb/s
Width                                    : 1 920 pixels
Height                                   : 1 080 pixels
Display aspect ratio                     : 16:9
Frame rate mode                          : Constant
Frame rate                               : 23.976 (24000/1001) FPS
Color space                              : YUV
Chroma subsampling                       : 4:2:0
Bit depth                                : 8 bits
Scan type                                : Progressive
Bits/(Pixel*Frame)                       : 0.498
Stream size                              : 17.1 GiB (86%)
Language                                 : English
Default                                  : Yes
Forced                                   : No

Audio
ID                                       : 2
Format                                   : DTS
Format/Info                              : Digital Theater Systems
Format profile                           : MA / Core
Mode                                     : 16
Format settings, Endianness              : Big
Codec ID                                 : A_DTS
Duration                                 : 1 h 38 min
Bit rate mode                            : Variable / Constant
Bit rate                                 : 3 977 kb/s / 1 509 kb/s
Channel(s)                               : 6 channels
Channel positions                        : Front: L C R, Side: L R, LFE
Sampling rate                            : 48.0 kHz
Frame rate                               : 93.750 FPS (512 spf)
Bit depth                                : 24 bits
Compression mode                         : Lossless / Lossy
Stream size                              : 2.75 GiB (14%)
Language                                 : English
Default                                  : Yes
Forced                                   : No

Text #1
ID                                       : 3
Format                                   : PGS
Muxing mode                              : zlib
Codec ID                                 : S_HDMV/PGS
Codec ID/Info                            : Picture based subtitle format used on BDs/HD-DVDs
Duration                                 : 1 h 31 min
Bit rate                                 : 20.6 kb/s
Count of elements                        : 1490
Stream size                              : 13.5 MiB (0%)
Language                                 : English
Default                                  : Yes
Forced                                   : No

Text #2
ID                                       : 4
Format                                   : PGS
Muxing mode                              : zlib
Codec ID                                 : S_HDMV/PGS
Codec ID/Info                            : Picture based subtitle format used on BDs/HD-DVDs
Duration                                 : 1 h 34 min
Bit rate                                 : 23.1 kb/s
Count of elements                        : 1766
Stream size                              : 15.5 MiB (0%)
Language                                 : English
Default                                  : No
Forced                                   : No

Menu
00:00:00.000                             : :CapA­tulo 01
00:07:58.478                             : :CapA­tulo 02
00:12:19.739                             : :CapA­tulo 03
00:16:54.680                             : :CapA­tulo 04
00:23:11.056                             : :CapA­tulo 05
00:29:41.530                             : :CapA­tulo 06
00:36:33.608                             : :CapA­tulo 07
00:42:02.520                             : :CapA­tulo 08
00:47:52.661                             : :CapA­tulo 09
00:52:55.589                             : :CapA­tulo 10
00:56:13.579                             : :CapA­tulo 11
01:03:31.307                             : :CapA­tulo 12
01:13:46.047                             : :CapA­tulo 13
01:18:45.304                             : :CapA­tulo 14
01:23:46.605                             : :CapA­tulo 15
01:31:15.553                             : :CapA­tulo 16

Скриншоты:



Все одноименные релизы в Клубе

Время раздачи: с 13:00 до 23:00
[NNM-Club.me]_Storm.Boy.2019.BluRay.REMUX.1080p.AVC.DTS-HD.MA5.1-iFT.mkv.torrent
 Торрент: Платиновая раздача  Зарегистрирован
 
Скачать


Примагнититься
 Зарегистрирован:   07 Май 2019 21:05:38
 Размер:   19,9 GB  (
 Рейтинг:    (Голосов: 8)
 Поблагодарили:   34
 Проверка:   Оформление проверено модератором 07 Май 2019 21:07:05
Как cкачать  ·  Как раздать  ·  Правильно оформить  ·  Поднять ратио!  
Loading...
Показать сообщения:   
Начать новую тему   Ответить на тему    Торрент-трекер NNM-Club -> Зарубежное кино -> Фильмы в оригинале (HD, UHD, UHD-LQ) Часовой пояс: GMT + 3
Страница 1 из 1