Классический форум-трекер
canvas not supported
Нас вместе: 4 079 269

Войны Юрского периода / Jurassic Fight Club (2008) HDTVRip [12 серий из 12]


Страницы:   Пред.  1, 2 
 
RSS
Начать новую тему   Ответить на тему    Торрент-трекер NNM-Club -> Зарубежные TV-бренды -> Доисторический мир
Автор Сообщение
skorpionN ®
Ведущий Документалист
Стаж: 12 лет 3 мес.
Сообщений: 9514
Ratio: 2629,145
Раздал: 22,35 TB
Поблагодарили: 362979
100%
Войны Юрского периода / Jurassic Fight Club (2008) HDTVRip [12 серий из 12]
Релиз группа: RG NNM-Club DocTV
Автор Rip'а: skorpionN

Русское название: Войны Юрского периода
Оригинальное название: Jurassic Fight Club
Режиссер / Телекомпания: Крег Лотербач
Год выпуска: 2008
Жанр: Документальный

Описание:
Они первые в истории бойцы! Самые страшные хищники! Находки палеонтологов и методы криминалистики позволят воссоздать доисторическое военное искусство динозавров. Это были войны Юрского периода!
Список серий:
Треклист:
01. Динозавр-каннибал / Cannibal Dinosaur
02. Охотник на Тираннозавра / T-Rex Hunter
03. Стая убийц / Gang Killers.
04. Самая кровавая битва / Bloodiest Battle
05. Морские охотники / Deep Sea Killers
06. Как охотник стал добычей / Hunter Becomes Hunted
07. Величайшие охотники /Biggest Killers
08. Последний бой Ютараптора / Raptors Last Stand
09. Монстры ледникового периода / Ice Age Monsters
10. Река смерти / River Of Deaths
11. Рапторы против Тиранозавра / Raptors vs T-Rex
12. Армагеддон /Armageddon
Код:
Общее
Полное имя                       : W:\Документалистика, развлекательное шоу\Доисторический мир\Войны Юрского периода. (Jurassic Fight Club). 12 из 12. 2008\01_Cannibal Dinosaur.avi
Формат                           : AVI
Формат/Информация                : Audio Video Interleave
Размер файла                     : 630 Мбайт
Продолжительность                : 43 м.
Общий поток                      : 2001 Кбит/сек
Программа кодирования            : Lavf51.12.1
Библиотека кодирования           : VirtualDub build 30586/release

Видео
Идентификатор                    : 0
Формат                           : MPEG-4 Visual
Профиль формата                  : Advanced Simple@L5
Параметр BVOP формата            : 2
Параметр QPel формата            : Нет
Параметр GMC формата             : Без точки перехода
Параметр матрицы формата         : Default (H.263)
Режим смешивания                 : Сжатый битовый поток
Идентификатор кодека             : XVID
Идентификатор кодека/Подсказка   : XviD
Продолжительность                : 43 м.
Битрейт                          : 1797 Кбит/сек
Ширина                           : 704 пикселя
Высота                           : 400 пикселей
Соотношение сторон               : 16:9
Частота кадров                   : 29,970 кадров/сек
Цветовое пространство            : YUV
Субдискретизация насыщенности    : 4:2:0
Битовая глубина                  : 8 бит
Тип развёртки                    : Прогрессивная
Метод сжатия                     : С потерями
Бит/(Пиксели*Кадры)              : 0.213
Размер потока                    : 566 Мбайт (90%)
Библиотека кодирования           : XviD 1.3.0.dev55

Аудио
Идентификатор                    : 1
Формат                           : AC-3
Формат/Информация                : Audio Coding 3
Расширение режима                : CM (complete main)
Идентификатор кодека             : 2000
Продолжительность                : 43 м.
Вид битрейта                     : Постоянный
Битрейт                          : 192 Кбит/сек
Каналы                           : 2 канала
Расположение каналов             : Front: L R
Частота                          : 48,0 КГц
Битовая глубина                  : 16 бит
Метод сжатия                     : С потерями
Размер потока                    : 60,4 Мбайт (10%)
Выравнивание                     : Соединение по промежуткам
Продолжительность промежутка     : 33  мс. (1,00 видеокадр)
Время предзагрузки промежутка    : 512  мс.



Код:
Общее
Полное имя                       : W:\Документалистика, развлекательное шоу\Доисторический мир\Войны Юрского периода. (Jurassic Fight Club). 12 из 12. 2008\02_T-Rex Hunter.avi
Формат                           : AVI
Формат/Информация                : Audio Video Interleave
Размер файла                     : 633 Мбайт
Продолжительность                : 44 м.
Общий поток                      : 2001 Кбит/сек
Программа кодирования            : Lavf51.12.1
Библиотека кодирования           : VirtualDub build 30586/release

Видео
Идентификатор                    : 0
Формат                           : MPEG-4 Visual
Профиль формата                  : Advanced Simple@L5
Параметр BVOP формата            : 2
Параметр QPel формата            : Нет
Параметр GMC формата             : Без точки перехода
Параметр матрицы формата         : Default (H.263)
Режим смешивания                 : Сжатый битовый поток
Идентификатор кодека             : XVID
Идентификатор кодека/Подсказка   : XviD
Продолжительность                : 44 м.
Битрейт                          : 1797 Кбит/сек
Ширина                           : 704 пикселя
Высота                           : 400 пикселей
Соотношение сторон               : 16:9
Частота кадров                   : 29,970 кадров/сек
Цветовое пространство            : YUV
Субдискретизация насыщенности    : 4:2:0
Битовая глубина                  : 8 бит
Тип развёртки                    : Прогрессивная
Метод сжатия                     : С потерями
Бит/(Пиксели*Кадры)              : 0.213
Размер потока                    : 568 Мбайт (90%)
Библиотека кодирования           : XviD 1.3.0.dev55

Аудио
Идентификатор                    : 1
Формат                           : AC-3
Формат/Информация                : Audio Coding 3
Расширение режима                : CM (complete main)
Идентификатор кодека             : 2000
Продолжительность                : 44 м.
Вид битрейта                     : Постоянный
Битрейт                          : 192 Кбит/сек
Каналы                           : 2 канала
Расположение каналов             : Front: L R
Частота                          : 48,0 КГц
Битовая глубина                  : 16 бит
Метод сжатия                     : С потерями
Размер потока                    : 60,7 Мбайт (10%)
Выравнивание                     : Соединение по промежуткам
Продолжительность промежутка     : 33  мс. (1,00 видеокадр)
Время предзагрузки промежутка    : 512  мс.



Код:
Общее
Полное имя                       : W:\Документалистика, развлекательное шоу\Доисторический мир\Войны Юрского периода. (Jurassic Fight Club). 12 из 12. 2008\03_Gang Killers.avi
Формат                           : AVI
Формат/Информация                : Audio Video Interleave
Размер файла                     : 632 Мбайт
Продолжительность                : 44 м.
Общий поток                      : 2001 Кбит/сек
Программа кодирования            : Lavf51.12.1
Библиотека кодирования           : VirtualDub build 30586/release

Видео
Идентификатор                    : 0
Формат                           : MPEG-4 Visual
Профиль формата                  : Advanced Simple@L5
Параметр BVOP формата            : 2
Параметр QPel формата            : Нет
Параметр GMC формата             : Без точки перехода
Параметр матрицы формата         : Default (H.263)
Режим смешивания                 : Сжатый битовый поток
Идентификатор кодека             : XVID
Идентификатор кодека/Подсказка   : XviD
Продолжительность                : 44 м.
Битрейт                          : 1797 Кбит/сек
Ширина                           : 704 пикселя
Высота                           : 400 пикселей
Соотношение сторон               : 16:9
Частота кадров                   : 29,970 кадров/сек
Цветовое пространство            : YUV
Субдискретизация насыщенности    : 4:2:0
Битовая глубина                  : 8 бит
Тип развёртки                    : Прогрессивная
Метод сжатия                     : С потерями
Бит/(Пиксели*Кадры)              : 0.213
Размер потока                    : 568 Мбайт (90%)
Библиотека кодирования           : XviD 1.3.0.dev55

Аудио
Идентификатор                    : 1
Формат                           : AC-3
Формат/Информация                : Audio Coding 3
Расширение режима                : CM (complete main)
Идентификатор кодека             : 2000
Продолжительность                : 44 м.
Вид битрейта                     : Постоянный
Битрейт                          : 192 Кбит/сек
Каналы                           : 2 канала
Расположение каналов             : Front: L R
Частота                          : 48,0 КГц
Битовая глубина                  : 16 бит
Метод сжатия                     : С потерями
Размер потока                    : 60,6 Мбайт (10%)
Выравнивание                     : Соединение по промежуткам
Продолжительность промежутка     : 33  мс. (1,00 видеокадр)
Время предзагрузки промежутка    : 512  мс.



Код:
Общее
Полное имя                       : W:\Документалистика, развлекательное шоу\Доисторический мир\Войны Юрского периода. (Jurassic Fight Club). 12 из 12. 2008\04_Bloodiest Battle.avi
Формат                           : AVI
Формат/Информация                : Audio Video Interleave
Размер файла                     : 625 Мбайт
Продолжительность                : 43 м.
Общий поток                      : 2001 Кбит/сек
Программа кодирования            : Lavf51.12.1
Библиотека кодирования           : VirtualDub build 30586/release

Видео
Идентификатор                    : 0
Формат                           : MPEG-4 Visual
Профиль формата                  : Advanced Simple@L5
Параметр BVOP формата            : 2
Параметр QPel формата            : Нет
Параметр GMC формата             : Без точки перехода
Параметр матрицы формата         : Default (H.263)
Режим смешивания                 : Сжатый битовый поток
Идентификатор кодека             : XVID
Идентификатор кодека/Подсказка   : XviD
Продолжительность                : 43 м.
Битрейт                          : 1797 Кбит/сек
Ширина                           : 704 пикселя
Высота                           : 400 пикселей
Соотношение сторон               : 16:9
Частота кадров                   : 29,970 кадров/сек
Цветовое пространство            : YUV
Субдискретизация насыщенности    : 4:2:0
Битовая глубина                  : 8 бит
Тип развёртки                    : Прогрессивная
Метод сжатия                     : С потерями
Бит/(Пиксели*Кадры)              : 0.213
Размер потока                    : 562 Мбайт (90%)
Библиотека кодирования           : XviD 1.3.0.dev55

Аудио
Идентификатор                    : 1
Формат                           : AC-3
Формат/Информация                : Audio Coding 3
Расширение режима                : CM (complete main)
Идентификатор кодека             : 2000
Продолжительность                : 43 м.
Вид битрейта                     : Постоянный
Битрейт                          : 192 Кбит/сек
Каналы                           : 2 канала
Расположение каналов             : Front: L R
Частота                          : 48,0 КГц
Битовая глубина                  : 16 бит
Метод сжатия                     : С потерями
Размер потока                    : 60,0 Мбайт (10%)
Выравнивание                     : Соединение по промежуткам
Продолжительность промежутка     : 33  мс. (1,00 видеокадр)
Время предзагрузки промежутка    : 512  мс.



Код:
Общее
Полное имя                       : W:\Документалистика, развлекательное шоу\Доисторический мир\Войны Юрского периода. (Jurassic Fight Club). 12 из 12. 2008\05_Deep Sea Killers.avi
Формат                           : AVI
Формат/Информация                : Audio Video Interleave
Размер файла                     : 630 Мбайт
Продолжительность                : 44 м.
Общий поток                      : 2000 Кбит/сек
Программа кодирования            : Lavf51.12.1
Библиотека кодирования           : VirtualDub build 30586/release

Видео
Идентификатор                    : 0
Формат                           : MPEG-4 Visual
Профиль формата                  : Advanced Simple@L5
Параметр BVOP формата            : 2
Параметр QPel формата            : Нет
Параметр GMC формата             : Без точки перехода
Параметр матрицы формата         : Default (H.263)
Режим смешивания                 : Сжатый битовый поток
Идентификатор кодека             : XVID
Идентификатор кодека/Подсказка   : XviD
Продолжительность                : 44 м.
Битрейт                          : 1797 Кбит/сек
Ширина                           : 704 пикселя
Высота                           : 400 пикселей
Соотношение сторон               : 16:9
Частота кадров                   : 29,970 кадров/сек
Цветовое пространство            : YUV
Субдискретизация насыщенности    : 4:2:0
Битовая глубина                  : 8 бит
Тип развёртки                    : Прогрессивная
Метод сжатия                     : С потерями
Бит/(Пиксели*Кадры)              : 0.213
Размер потока                    : 565 Мбайт (90%)
Библиотека кодирования           : XviD 1.3.0.dev55

Аудио
Идентификатор                    : 1
Формат                           : AC-3
Формат/Информация                : Audio Coding 3
Расширение режима                : CM (complete main)
Идентификатор кодека             : 2000
Продолжительность                : 44 м.
Вид битрейта                     : Постоянный
Битрейт                          : 192 Кбит/сек
Каналы                           : 2 канала
Расположение каналов             : Front: L R
Частота                          : 48,0 КГц
Битовая глубина                  : 16 бит
Метод сжатия                     : С потерями
Размер потока                    : 60,4 Мбайт (10%)
Выравнивание                     : Соединение по промежуткам
Продолжительность промежутка     : 33  мс. (1,00 видеокадр)
Время предзагрузки промежутка    : 512  мс.



Код:
Общее
Полное имя                       : W:\Документалистика, развлекательное шоу\Доисторический мир\Войны Юрского периода. (Jurassic Fight Club). 12 из 12. 2008\06_Hunter Becomes Hunted.avi
Формат                           : AVI
Формат/Информация                : Audio Video Interleave
Размер файла                     : 631 Мбайт
Продолжительность                : 44 м.
Общий поток                      : 2002 Кбит/сек
Программа кодирования            : Lavf51.12.1
Библиотека кодирования           : VirtualDub build 30586/release

Видео
Идентификатор                    : 0
Формат                           : MPEG-4 Visual
Профиль формата                  : Advanced Simple@L5
Параметр BVOP формата            : 2
Параметр QPel формата            : Нет
Параметр GMC формата             : Без точки перехода
Параметр матрицы формата         : Default (H.263)
Режим смешивания                 : Сжатый битовый поток
Идентификатор кодека             : XVID
Идентификатор кодека/Подсказка   : XviD
Продолжительность                : 44 м.
Битрейт                          : 1798 Кбит/сек
Ширина                           : 704 пикселя
Высота                           : 400 пикселей
Соотношение сторон               : 16:9
Частота кадров                   : 29,970 кадров/сек
Цветовое пространство            : YUV
Субдискретизация насыщенности    : 4:2:0
Битовая глубина                  : 8 бит
Тип развёртки                    : Прогрессивная
Метод сжатия                     : С потерями
Бит/(Пиксели*Кадры)              : 0.213
Размер потока                    : 567 Мбайт (90%)
Библиотека кодирования           : XviD 1.3.0.dev55

Аудио
Идентификатор                    : 1
Формат                           : AC-3
Формат/Информация                : Audio Coding 3
Расширение режима                : CM (complete main)
Идентификатор кодека             : 2000
Продолжительность                : 44 м.
Вид битрейта                     : Постоянный
Битрейт                          : 192 Кбит/сек
Каналы                           : 2 канала
Расположение каналов             : Front: L R
Частота                          : 48,0 КГц
Битовая глубина                  : 16 бит
Метод сжатия                     : С потерями
Размер потока                    : 60,6 Мбайт (10%)
Выравнивание                     : Соединение по промежуткам
Продолжительность промежутка     : 33  мс. (1,00 видеокадр)
Время предзагрузки промежутка    : 512  мс.



Код:
Общее
Полное имя                       : W:\Документалистика, развлекательное шоу\Доисторический мир\Войны Юрского периода. (Jurassic Fight Club). 12 из 12. 2008\07_Biggest Killers.avi
Формат                           : AVI
Формат/Информация                : Audio Video Interleave
Размер файла                     : 633 Мбайт
Продолжительность                : 44 м.
Общий поток                      : 2001 Кбит/сек
Программа кодирования            : Lavf51.12.1
Библиотека кодирования           : VirtualDub build 30586/release

Видео
Идентификатор                    : 0
Формат                           : MPEG-4 Visual
Профиль формата                  : Advanced Simple@L5
Параметр BVOP формата            : 2
Параметр QPel формата            : Нет
Параметр GMC формата             : Без точки перехода
Параметр матрицы формата         : Default (H.263)
Режим смешивания                 : Сжатый битовый поток
Идентификатор кодека             : XVID
Идентификатор кодека/Подсказка   : XviD
Продолжительность                : 44 м.
Битрейт                          : 1797 Кбит/сек
Ширина                           : 704 пикселя
Высота                           : 400 пикселей
Соотношение сторон               : 16:9
Частота кадров                   : 29,970 кадров/сек
Цветовое пространство            : YUV
Субдискретизация насыщенности    : 4:2:0
Битовая глубина                  : 8 бит
Тип развёртки                    : Прогрессивная
Метод сжатия                     : С потерями
Бит/(Пиксели*Кадры)              : 0.213
Размер потока                    : 568 Мбайт (90%)
Библиотека кодирования           : XviD 1.3.0.dev55

Аудио
Идентификатор                    : 1
Формат                           : AC-3
Формат/Информация                : Audio Coding 3
Расширение режима                : CM (complete main)
Идентификатор кодека             : 2000
Продолжительность                : 44 м.
Вид битрейта                     : Постоянный
Битрейт                          : 192 Кбит/сек
Каналы                           : 2 канала
Расположение каналов             : Front: L R
Частота                          : 48,0 КГц
Битовая глубина                  : 16 бит
Метод сжатия                     : С потерями
Размер потока                    : 60,7 Мбайт (10%)
Выравнивание                     : Соединение по промежуткам
Продолжительность промежутка     : 33  мс. (1,00 видеокадр)
Время предзагрузки промежутка    : 512  мс.



Код:
Общее
Полное имя                       : W:\Документалистика, развлекательное шоу\Доисторический мир\Войны Юрского периода. (Jurassic Fight Club). 12 из 12. 2008\08_Raptors Last Stand.avi
Формат                           : AVI
Формат/Информация                : Audio Video Interleave
Размер файла                     : 632 Мбайт
Продолжительность                : 44 м.
Общий поток                      : 2003 Кбит/сек
Программа кодирования            : Lavf51.12.1
Библиотека кодирования           : VirtualDub build 30586/release

Видео
Идентификатор                    : 0
Формат                           : MPEG-4 Visual
Профиль формата                  : Advanced Simple@L5
Параметр BVOP формата            : 2
Параметр QPel формата            : Нет
Параметр GMC формата             : Без точки перехода
Параметр матрицы формата         : Default (H.263)
Режим смешивания                 : Сжатый битовый поток
Идентификатор кодека             : XVID
Идентификатор кодека/Подсказка   : XviD
Продолжительность                : 44 м.
Битрейт                          : 1799 Кбит/сек
Ширина                           : 704 пикселя
Высота                           : 400 пикселей
Соотношение сторон               : 16:9
Частота кадров                   : 29,970 кадров/сек
Цветовое пространство            : YUV
Субдискретизация насыщенности    : 4:2:0
Битовая глубина                  : 8 бит
Тип развёртки                    : Прогрессивная
Метод сжатия                     : С потерями
Бит/(Пиксели*Кадры)              : 0.213
Размер потока                    : 567 Мбайт (90%)
Библиотека кодирования           : XviD 1.3.0.dev55

Аудио
Идентификатор                    : 1
Формат                           : AC-3
Формат/Информация                : Audio Coding 3
Расширение режима                : CM (complete main)
Идентификатор кодека             : 2000
Продолжительность                : 44 м.
Вид битрейта                     : Постоянный
Битрейт                          : 192 Кбит/сек
Каналы                           : 2 канала
Расположение каналов             : Front: L R
Частота                          : 48,0 КГц
Битовая глубина                  : 16 бит
Метод сжатия                     : С потерями
Размер потока                    : 60,6 Мбайт (10%)
Выравнивание                     : Соединение по промежуткам
Продолжительность промежутка     : 33  мс. (1,00 видеокадр)
Время предзагрузки промежутка    : 512  мс.



Код:
Общее
Полное имя                       : W:\Документалистика, развлекательное шоу\Доисторический мир\Войны Юрского периода. (Jurassic Fight Club). 12 из 12. 2008\09_Ice Age Monsters.avi
Формат                           : AVI
Формат/Информация                : Audio Video Interleave
Размер файла                     : 629 Мбайт
Продолжительность                : 43 м.
Общий поток                      : 2001 Кбит/сек
Программа кодирования            : Lavf51.12.1
Библиотека кодирования           : VirtualDub build 30586/release

Видео
Идентификатор                    : 0
Формат                           : MPEG-4 Visual
Профиль формата                  : Advanced Simple@L5
Параметр BVOP формата            : 2
Параметр QPel формата            : Нет
Параметр GMC формата             : Без точки перехода
Параметр матрицы формата         : Default (H.263)
Режим смешивания                 : Сжатый битовый поток
Идентификатор кодека             : XVID
Идентификатор кодека/Подсказка   : XviD
Продолжительность                : 43 м.
Битрейт                          : 1798 Кбит/сек
Ширина                           : 704 пикселя
Высота                           : 400 пикселей
Соотношение сторон               : 16:9
Частота кадров                   : 29,970 кадров/сек
Цветовое пространство            : YUV
Субдискретизация насыщенности    : 4:2:0
Битовая глубина                  : 8 бит
Тип развёртки                    : Прогрессивная
Метод сжатия                     : С потерями
Бит/(Пиксели*Кадры)              : 0.213
Размер потока                    : 565 Мбайт (90%)
Библиотека кодирования           : XviD 1.3.0.dev55

Аудио
Идентификатор                    : 1
Формат                           : AC-3
Формат/Информация                : Audio Coding 3
Расширение режима                : CM (complete main)
Идентификатор кодека             : 2000
Продолжительность                : 43 м.
Вид битрейта                     : Постоянный
Битрейт                          : 192 Кбит/сек
Каналы                           : 2 канала
Расположение каналов             : Front: L R
Частота                          : 48,0 КГц
Битовая глубина                  : 16 бит
Метод сжатия                     : С потерями
Задержка видео                   : 32 мс.
Размер потока                    : 60,3 Мбайт (10%)
Выравнивание                     : Соединение по промежуткам
Продолжительность промежутка     : 33  мс. (1,00 видеокадр)
Время предзагрузки промежутка    : 512  мс.



Код:
Общее
Полное имя                       : W:\Документалистика, развлекательное шоу\Доисторический мир\Войны Юрского периода. (Jurassic Fight Club). 12 из 12. 2008\10_River Of Deaths.avi
Формат                           : AVI
Формат/Информация                : Audio Video Interleave
Размер файла                     : 632 Мбайт
Продолжительность                : 44 м.
Общий поток                      : 2001 Кбит/сек
Программа кодирования            : Lavf51.12.1
Библиотека кодирования           : VirtualDub build 30586/release

Видео
Идентификатор                    : 0
Формат                           : MPEG-4 Visual
Профиль формата                  : Advanced Simple@L5
Параметр BVOP формата            : 2
Параметр QPel формата            : Нет
Параметр GMC формата             : Без точки перехода
Параметр матрицы формата         : Default (H.263)
Режим смешивания                 : Сжатый битовый поток
Идентификатор кодека             : XVID
Идентификатор кодека/Подсказка   : XviD
Продолжительность                : 44 м.
Битрейт                          : 1798 Кбит/сек
Ширина                           : 704 пикселя
Высота                           : 400 пикселей
Соотношение сторон               : 16:9
Частота кадров                   : 29,970 кадров/сек
Цветовое пространство            : YUV
Субдискретизация насыщенности    : 4:2:0
Битовая глубина                  : 8 бит
Тип развёртки                    : Прогрессивная
Метод сжатия                     : С потерями
Бит/(Пиксели*Кадры)              : 0.213
Размер потока                    : 568 Мбайт (90%)
Библиотека кодирования           : XviD 1.3.0.dev55

Аудио
Идентификатор                    : 1
Формат                           : AC-3
Формат/Информация                : Audio Coding 3
Расширение режима                : CM (complete main)
Идентификатор кодека             : 2000
Продолжительность                : 44 м.
Вид битрейта                     : Постоянный
Битрейт                          : 192 Кбит/сек
Каналы                           : 2 канала
Расположение каналов             : Front: L R
Частота                          : 48,0 КГц
Битовая глубина                  : 16 бит
Метод сжатия                     : С потерями
Размер потока                    : 60,6 Мбайт (10%)
Выравнивание                     : Соединение по промежуткам
Продолжительность промежутка     : 33  мс. (1,00 видеокадр)
Время предзагрузки промежутка    : 512  мс.



Код:
Общее
Полное имя                       : W:\Документалистика, развлекательное шоу\Доисторический мир\Войны Юрского периода. (Jurassic Fight Club). 12 из 12. 2008\11_Raptors vs T-Rex.avi
Формат                           : AVI
Формат/Информация                : Audio Video Interleave
Размер файла                     : 606 Мбайт
Продолжительность                : 42 м.
Общий поток                      : 2001 Кбит/сек
Программа кодирования            : Lavf51.12.1
Библиотека кодирования           : VirtualDub build 30586/release

Видео
Идентификатор                    : 0
Формат                           : MPEG-4 Visual
Профиль формата                  : Advanced Simple@L5
Параметр BVOP формата            : 2
Параметр QPel формата            : Нет
Параметр GMC формата             : Без точки перехода
Параметр матрицы формата         : Default (H.263)
Режим смешивания                 : Сжатый битовый поток
Идентификатор кодека             : XVID
Идентификатор кодека/Подсказка   : XviD
Продолжительность                : 42 м.
Битрейт                          : 1797 Кбит/сек
Ширина                           : 704 пикселя
Высота                           : 400 пикселей
Соотношение сторон               : 16:9
Частота кадров                   : 29,970 кадров/сек
Цветовое пространство            : YUV
Субдискретизация насыщенности    : 4:2:0
Битовая глубина                  : 8 бит
Тип развёртки                    : Прогрессивная
Метод сжатия                     : С потерями
Бит/(Пиксели*Кадры)              : 0.213
Размер потока                    : 544 Мбайт (90%)
Библиотека кодирования           : XviD 1.3.0.dev55

Аудио
Идентификатор                    : 1
Формат                           : AC-3
Формат/Информация                : Audio Coding 3
Расширение режима                : CM (complete main)
Идентификатор кодека             : 2000
Продолжительность                : 42 м.
Вид битрейта                     : Постоянный
Битрейт                          : 192 Кбит/сек
Каналы                           : 2 канала
Расположение каналов             : Front: L R
Частота                          : 48,0 КГц
Битовая глубина                  : 16 бит
Метод сжатия                     : С потерями
Размер потока                    : 58,1 Мбайт (10%)
Выравнивание                     : Соединение по промежуткам
Продолжительность промежутка     : 33  мс. (1,00 видеокадр)
Время предзагрузки промежутка    : 512  мс.



Код:
Общее
Полное имя                       : W:\Документалистика, развлекательное шоу\Доисторический мир\Войны Юрского периода. (Jurassic Fight Club). 12 из 12. 2008\12_Armageddon.avi
Формат                           : AVI
Формат/Информация                : Audio Video Interleave
Размер файла                     : 641 Мбайт
Продолжительность                : 44 м.
Общий поток                      : 2001 Кбит/сек
Программа кодирования            : Lavf51.12.1
Библиотека кодирования           : VirtualDub build 30586/release

Видео
Идентификатор                    : 0
Формат                           : MPEG-4 Visual
Профиль формата                  : Advanced Simple@L5
Параметр BVOP формата            : 2
Параметр QPel формата            : Нет
Параметр GMC формата             : Без точки перехода
Параметр матрицы формата         : Default (H.263)
Режим смешивания                 : Сжатый битовый поток
Идентификатор кодека             : XVID
Идентификатор кодека/Подсказка   : XviD
Продолжительность                : 44 м.
Битрейт                          : 1797 Кбит/сек
Ширина                           : 704 пикселя
Высота                           : 400 пикселей
Соотношение сторон               : 16:9
Частота кадров                   : 29,970 кадров/сек
Цветовое пространство            : YUV
Субдискретизация насыщенности    : 4:2:0
Битовая глубина                  : 8 бит
Тип развёртки                    : Прогрессивная
Метод сжатия                     : С потерями
Бит/(Пиксели*Кадры)              : 0.213
Размер потока                    : 576 Мбайт (90%)
Библиотека кодирования           : XviD 1.3.0.dev55

Аудио
Идентификатор                    : 1
Формат                           : AC-3
Формат/Информация                : Audio Coding 3
Расширение режима                : CM (complete main)
Идентификатор кодека             : 2000
Продолжительность                : 44 м.
Вид битрейта                     : Постоянный
Битрейт                          : 192 Кбит/сек
Каналы                           : 2 канала
Расположение каналов             : Front: L R
Частота                          : 48,0 КГц
Битовая глубина                  : 16 бит
Метод сжатия                     : С потерями
Размер потока                    : 61,5 Мбайт (10%)
Выравнивание                     : Соединение по промежуткам
Продолжительность промежутка     : 33  мс. (1,00 видеокадр)
Время предзагрузки промежутка    : 512  мс.



Продолжительность: 12x~00:45:00

Перевод: Двухголосый закадровый, профессиональный

Видеокодек: Xvid
Битрейт видео: ~Xvid 29.97fps 1797kbps
Размер кадра: 704x400
Качество видео: HDTVRip
Аудиокодек: AC3
Битрейт аудио: Dolby AC3 48000Hz stereo 192kbps

Скриншоты:


Время раздачи: 24/7 ( до первых скачавших, перебои со связью бывают,зависит от провайдера)
Реставрация релиза: BarShadow
[NNM-Club.me]_Voynyi YUrskogo perioda. (Jurassic Fight Club). 12 iz 12. 2008.torrent
 Торрент: Платиновая раздача  Зарегистрирован
 
Скачать


 Зарегистрирован:   14 Сен 2013 11:40:03
 Размер:   7,38 GB  (
 Рейтинг:   4,8 (Голосов: 64)
 Поблагодарили:   278
 Проверка:   Оформление проверено модератором 14 Сен 2013 11:40:21
Как cкачать  ·  Как раздать  ·  Правильно оформить  ·  Поднять ратио!  
Klabesin
Стаж: 9 лет 9 мес.
Сообщений: 88
Ratio: 23,609
Раздал: 1,019 TB
100%
Откуда: Около здесь
witch.png
Загрузка 130, совсем неплохо ! :подмигивание:

_________________
Если я решил ничего не делать - меня уже не остановить...
Klabesin
Стаж: 9 лет 9 мес.
Сообщений: 88
Ratio: 23,609
Раздал: 1,019 TB
100%
Откуда: Около здесь
witch.png
Племянник форматнул раздел с закачками ... :злость:
Обидно, для него и качал
Начнём с начала :убится ап стену:

_________________
Если я решил ничего не делать - меня уже не остановить...
DrMoreau
Стаж: 9 лет 3 мес.
Сообщений: 3
Ratio: 18,287
0%
Спасибо, конечно, за труды, но разве нельзя было по-человечески рипнуть, без "гребенки" ?
На мониторе 1920х1280 смотрится ваще ужасно. Пришлось стереть к е.м. и скачать с Национального. :(
markusrite
Стаж: 8 лет 4 мес.
Сообщений: 1
Ratio: 0,673
100%
russia.gif
Качество хуже некуда отстой полный не качайте, зря время убил(((
bersen
Стаж: 9 лет 3 мес.
Сообщений: 5
Ratio: 1,027
23.08%
russia.gif
Интерлейс (interlace) ужасный
TheBitch
Стаж: 9 лет 5 мес.
Сообщений: 4
Ratio: 0,787
100%
ukraine.gif
спасибо
yahuo
Стаж: 7 лет 8 мес.
Сообщений: 61
Ratio: 0,1
20%
skorpionN писал(а): Перейти к сообщению
5 серий уже есть на трекере, здесь полный комплект
:цветок:
yahuo
Стаж: 7 лет 8 мес.
Сообщений: 61
Ratio: 0,1
20%
спасибо
Dudley
Стаж: 9 лет 5 мес.
Сообщений: 277
Ratio: 1,327
0.79%
Откуда: Рашн Колобашн
russia.gif
Да действительно качество не ахти какое.
start-stop
 
Стаж: 9 лет 2 мес.
Сообщений: 1
Ratio: 2,421
100%
russia.gif
skorpionN писал(а): Перейти к сообщению
[quote="Academon" id=2127990]manulx
Релизер теперь к скорости не имеет практически никакого отношения

А к качеству,он имеет отношение? Оно отсутствует.
Oceanair
Стаж: 9 лет 6 мес.
Сообщений: 14
Ratio: 6,513
100%
Скачал быстро, без претензий... НО! Качество видео просто ужасное. Лет десять назад такое ещё можно было раздавать. Сейчас такого качества фильмы нужно просто удалять.
Makeev Alexander
Стаж: 10 лет 3 мес.
Сообщений: 299
Ratio: 128,213
Раздал: 66,26 TB
Поблагодарили: 1714
100%
pirates.png
Oceanair писал(а): Перейти к сообщению
Скачал быстро, без претензий... НО! Качество видео просто ужасное. Лет десять назад такое ещё можно было раздавать. Сейчас такого качества фильмы нужно просто удалять.


Ну что Вы в самом деле, как дети малые? :(
Для начала обратите внимание, что раздача 2010 года, и на тот момент вполне могло не оказаться исходника в надлежащем качестве.
Сейчас вполне можете скачать например вот этот релиз: Войны Юрского периода / Jurassic Fight Club (2008) [1080i] HDTVRip , там картинка должна быть явно получше.
boba88
RG NNM-Club DocTV
 
Стаж: 9 лет 5 мес.
Сообщений: 5546
Ratio: 98,85
Раздал: 40,55 TB
Поблагодарили: 207740
100%
Откуда: Одесса
Смотреть невозможно, качество никакое :(
kot666-ss
Uploader 100+

Online
Стаж: 6 лет 8 мес.
Сообщений: 326
Ratio: 179,742
Поблагодарили: 15
100%
Откуда: Koenigsberg
Ужасное качество.

_________________
Во время всеобщей лжи говорить правду-это экстремизм!
Джордж Оруэлл
Показать сообщения:   
Начать новую тему   Ответить на тему    Торрент-трекер NNM-Club -> Зарубежные TV-бренды -> Доисторический мир Часовой пояс: GMT + 3
Страницы:   Пред.  1, 2
Страница 2 из 2