Классический форум-трекер
canvas not supported
Нас вместе: 4 073 402
Loading...

Делай как надо / Do the Right Thing (1989) [720p] BDRip


 
 
RSS
Начать новую тему   Ответить на тему    Торрент-трекер NNM-Club -> Архив торрентов -> Архив Классики, Старого кино, Артхаус
Автор Сообщение
SNAUTS ®
Ценитель HD
Uploader 1000+
Стаж: 8 лет 11 мес.
Сообщений: 2113
Ratio: 70K
Поблагодарили: 137573
100%
Откуда: .. и только свежий космос
ussr.gif
Делай как надо / Do the Right Thing (1989) [720p] BDRip
«It's the hottest day of the summer. You can do nothing, you can do something, or you can...»
Русское название: Делай как надо
Оригинальное название: Do the Right Thing
Страна: США
Год выпуска: 1989
Жанр: Комедия, драма, криминал

Описание фильма:
В Нью-Йорке стоит невыносимая жара. Плавится асфальт, автомобили раскалились до температуры доменных печей, а изможденные люди, обливаясь потом, мечтают провести остаток дня под струями холодного душа… Одновременно с тем, как столбик термометра безжалостно ползет вверх, кровь жителей Бруклина постепенно начинает вскипать. Обычно хорошо спрятанные нетерпимость, агрессия и жестокость неудержимо просятся наружу, и «поступать правильно» уже никак не получается. А посему милая, старая, уютная итальянская пиццерия «У Сэла» превращается к исходу дня в настоящее поле боя.

Режиссер: Спайк Ли
Актеры: Руби Ди, Дэнни Айелло, Оззи Дэвис, Ричард Эдсон, Джон Туртурро, Спайк Ли, Сэмюэл Л. Джексон, Джанкарло Эспозито, Билл Нанн, Джон Сэвадж, Френки Фейсон, Робин Харрис, Мартин Лоуренс

Продолжительность: C.Визгунов
Перевод: Многоголосый закадровый, Авторский
Субтитры: Английские, Испанские


Рейтинг MPAA: R – лицам до 17 лет обязательное присутствие родителей!!!

Дата мировой премьеры: 14 июня 1989

Видеокодек: MPEG-4 AVC/H.264
Битрейт видео: ~ 7240 Кбит/с
Размер кадра: 1280x694
Качество видео: BDRip

Аудио:
1. Dolby Digital Русский 320 kbps 5.1 48 kHz (Многоголосый закадровый)
2. DTS Русский 1536 kbps 5.1 48 kHz 24-bit (Авторский - C.Визгунов)
3. DTS Английский 1536 kbps 5.1 48 kHz 24-bit
4. OGG Английский 80 kbps 2.0 44 kHz (Комментарий 1)
5. OGG Английский 80 kbps 2.0 44 kHz (Комментарий 2)
Оскар, 1990 год
Номинации (2):
Лучшая мужская роль второго плана (Дэнни Айелло)
Лучший сценарий

Золотой глобус, 1990 год
Номинации (4):
Лучший фильм (драма)
Лучшая мужская роль второго плана (Дэнни Айелло)
Лучший режиссер (Спайк Ли)
Лучший сценарий

Каннский кинофестиваль, 1989 год
Номинации (1):
Золотая пальмовая ветвь
Третья полнометражная картина 33-летнего афроамериканского режиссёра вызвала интерес и у зрителей, и у критиков, что случается не так уж часто. Кинематографическое мастерство Спайка Ли проявилось в совершенно свободном, раскрепощённом, естественном обращении с материалом, которым оказалась сама изменчивая, запутанная, лихорадочная и кажущаяся фантасмагорической действительность квартала Бедфорд-Стайвисент в нью-йоркском Бруклине. По-настоящему колоритны чернокожие обитатели этого района: неунывающий Муки (в его роли — постановщик собственной персоной), который больше бездельничает, нежели работает в пиццерии итальянца Сэла; занудный экстремист по прозвищу Баггин Аут (то есть — Нанюхавшийся), невозмутимый любитель рэпа по кличке Радио Рахим, придурковатый заика Смайли, мудрый пьяница, называемый Мэром, а также лениво перекидывающиеся словами на солнцепёке трое безработных, местные «философы жизни»…

Комедийный, экстравагантный, временами то фарсовый, то трагикомичный стиль ленты приобретает черты модного городского «стёба», непрестанного, «скорострельного рэпа», быстро ритмизованной болтовни обо всём и ни о чём. Но вот анекдотичный, «понтярный» спор из-за фотографий знаменитых италоамериканцев на стенах пиццерии непредсказуемо перерастает в настоящую битву рас. И первой жертвой становится Радио Рахим, который только что продемонстрировал специально для Муки шуточную интермедию о борьбе любви и ненависти при помощи своих рук — левой и правой (на самом-то деле, здесь отсылка к татуировкам на фалангах пальцев известного персонажа Роберта Митчума в «Ночи охотника»). А представлявшаяся постмодернистски весёлой чехардой культур, обычаев и расовых предрассудков, современная американская, точнее, нью-йоркская реальность, тут же обнажает, в трактовке Ли, свои скрытые, кровоточащие, болезненные проблемы. Человек поневоле поставлен перед дилеммой молчаливого неприятия или узаконенного насилия по отношению к чему-то или кому-то враждебному, просто отличному от него.

И довольно косноязычная трепотня Смайли про Мартина Лютера Кинга и Малколма Х имеет, в общем-то, философско-политическую подоплёку, которая раскрыта в двух финальных не столь эпиграфах, сколь эпитафиях. Пьяные наставления Мэра шныряющему по улицам Муки могут быть поняты не только в обытовлённой интерпретации («Делай, как надо»), но и в качестве своеобразного категорического императива: «Поступи правильно». В фильме Спайка Ли вскрыты приметы своего рода «тоталитарного рэпа», который выявляет в обычном человеке способность модификации бытового шовинизма уже в фактически фашистское стремление к уничтожению всех непохожих и только по этой причине мешающих жить. Но как ни странно, сам режиссёр в дальнейшем не раз впадал в грех жёсткой непримиримости по отношению к тем, кто не принадлежит к чернокожей расе.
Общее
Уникальный идентификатор : 220314505948152377042920681819951483475 (0xA5BF07C9877E57AC8B5A0ADA05664A53)
Полное имя : E:\films\Delaj.kak.nado.1989.x264.BDRip.720p.mkv
Формат : Matroska
Версия формата : Version 2
Размер файла : 9,00 Гбайт
Продолжительность : 1 ч. 59 м.
Режим общего битрейта : Переменный
Общий поток : 10,7 Мбит/сек
Дата кодирования : UTC 2010-05-24 15:29:48
Программа кодирования : mkvmerge v3.3.0 ('Language') built on Mar 24 2010 14:59:24
Библиотека кодирования : libebml v0.8.0 + libmatroska v0.9.0

Видео
Идентификатор : 1
Формат : AVC
Формат/Информация : Advanced Video Codec
Профиль формата : High@L4.1
Параметр CABAC формата : Да
Параметр ReFrames формата : 9 кадров
Идентификатор кодека : V_MPEG4/ISO/AVC
Продолжительность : 1 ч. 59 м.
Битрейт : 7240 Кбит/сек
Ширина : 1280 пикселей
Высота : 694 пикселя
Соотношение сторон : 16:9
Частота кадров : 23,976 кадра/сек
Цветовое пространство : YUV
Субдискретизация насыщенности : 4:2:0
Битовая глубина : 8 бит
Тип развёртки : Прогрессивная
Бит/(Пиксели*Кадры) : 0.340
Размер потока : 5,89 Гбайт (65%)
Библиотека кодирования : x264 core 84 r1400M 20fa784
Настройки программы : cabac=1 / ref=9 / deblock=1:-3:-3 / analyse=0x3:0x113 / me=umh / subme=9 / psy=1 / psy_rd=1.1:0.1 / mixed_ref=1 / me_range=48 / chroma_me=1 / trellis=2 / 8x8dct=1 / cqm=0 / deadzone=21,11 / fast_pskip=0 / chroma_qp_offset=-3 / threads=3 / sliced_threads=0 / nr=0 / decimate=0 / mbaff=0 / constrained_intra=0 / bframes=6 / b_pyramid=2 / b_adapt=2 / b_bias=0 / direct=1 / wpredb=1 / wpredp=2 / keyint=250 / keyint_min=25 / scenecut=40 / intra_refresh=0 / rc=2pass / mbtree=0 / bitrate=7240 / ratetol=1.0 / qcomp=0.60 / qpmin=10 / qpmax=51 / qpstep=4 / cplxblur=20.0 / qblur=0.5 / ip_ratio=1.40 / pb_ratio=1.30 / aq=1:0.50 / pulldown=0 / nal_hrd=0
Язык : English
Default : Нет
Forced : Нет

Аудио #1
Идентификатор : 2
Формат : AC-3
Формат/Информация : Audio Coding 3
Расширение режима : CM (complete main)
Идентификатор кодека : A_AC3
Продолжительность : 1 ч. 59 м.
Вид битрейта : Постоянный
Битрейт : 320 Кбит/сек
Каналы : 2 канала
Расположение каналов : Front: L R
Частота : 48,0 КГц
Битовая глубина : 16 бит
Метод сжатия : С потерями
Размер потока : 274 Мбайт (3%)
Заголовок : AC3 2.0 320 Kbps [Многоголосый]
Язык : Russian
Default : Да
Forced : Нет

Аудио #2
Идентификатор : 3
Формат : DTS
Формат/Информация : Digital Theater Systems
Идентификатор кодека : A_DTS
Продолжительность : 1 ч. 59 м.
Вид битрейта : Постоянный
Битрейт : 1510 Кбит/сек
Каналы : 6 каналов
Расположение каналов : Front: L C R, Side: L R, LFE
Частота : 48,0 КГц
Битовая глубина : 24 бит
Метод сжатия : С потерями
Размер потока : 1,26 Гбайт (14%)
Заголовок : DTS 5.1 1536 Kbps [Одноголосый, C.Визгунов]
Язык : Russian
Default : Нет
Forced : Нет

Аудио #3
Идентификатор : 4
Формат : DTS
Формат/Информация : Digital Theater Systems
Идентификатор кодека : A_DTS
Продолжительность : 1 ч. 59 м.
Вид битрейта : Постоянный
Битрейт : 1510 Кбит/сек
Каналы : 6 каналов
Расположение каналов : Front: L C R, Side: L R, LFE
Частота : 48,0 КГц
Битовая глубина : 24 бит
Метод сжатия : С потерями
Размер потока : 1,26 Гбайт (14%)
Заголовок : DTS 5.1 1536 Kbps [Оригинал]
Язык : English
Default : Нет
Forced : Нет

Аудио #4
Идентификатор : 5
Формат : Vorbis
Параметр Floor формата : 1
Идентификатор кодека : A_VORBIS
Продолжительность : 1 ч. 59 м.
Вид битрейта : Переменный
Битрейт : 80,0 Кбит/сек
Каналы : 2 канала
Частота : 44,1 КГц
Метод сжатия : С потерями
Размер потока : 68,6 Мбайт (1%)
Заголовок : OGG 2.0 80 Kbps [Commentary#1]
Библиотека кодирования : libVorbis 20090709 (UTC 2009-07-09)
Язык : English
Default : Нет
Forced : Нет
Программа кодирования : VLC media player

Аудио #5
Идентификатор : 6
Формат : Vorbis
Параметр Floor формата : 1
Идентификатор кодека : A_VORBIS
Продолжительность : 1 ч. 59 м.
Вид битрейта : Переменный
Битрейт : 80,0 Кбит/сек
Каналы : 2 канала
Частота : 44,1 КГц
Метод сжатия : С потерями
Размер потока : 68,6 Мбайт (1%)
Заголовок : OGG 2.0 80 Kbps [Commentary#2]
Библиотека кодирования : libVorbis 20090709 (UTC 2009-07-09)
Язык : English
Default : Нет
Forced : Нет
Программа кодирования : VLC media player

Текст #1
Идентификатор : 7
Формат : UTF-8
Идентификатор кодека : S_TEXT/UTF8
Идентификатор кодека/Информация : UTF-8 Plain Text
Язык : English
Default : Нет
Forced : Нет

Текст #2
Идентификатор : 8
Формат : UTF-8
Идентификатор кодека : S_TEXT/UTF8
Идентификатор кодека/Информация : UTF-8 Plain Text
Язык : Spanish
Default : Нет
Forced : Нет
Скриншоты:

Раздача: 24/7
Не забываем говорить спасибо, Вам не сложно, а мне приятно)))
Прошу с раздачи не уходить! Скачал сам, дай и другим скачать!!!
Приятного просмотра)))
[NNM-Club.ru]_Delaj.kak.nado.1989.x264.BDRip.720p.mkv.torrent
 Торрент: Платиновая раздача  Зарегистрирован
 
Скачать


 Зарегистрирован:   03 Май 2012 08:25:14
 Размер:   9 GB  (
 Рейтинг:    (Голосов: 6)
 Поблагодарили:   25
 Проверка:   Оформление проверено модератором 03 Май 2012 20:22:52
Как cкачать  ·  Как раздать  ·  Правильно оформить  ·  Поднять ратио!  
Топик был перенесен из форума Старые Зарубежные Фильмы (HD, UHD, UHD-LQ, 3D) в форум Архив Классики, Старого кино, Артхаус

Причина переноса: http://nnmclub.to/forum/viewtopic.php?t=1302867

Исправил релиз - напиши ЛС MAG3131, дав ссылку на релиз.
Если нет ответа 24 часа - нажми на кнопку "Обратить внимание модераторов".
Показать сообщения:   
Начать новую тему   Ответить на тему    Торрент-трекер NNM-Club -> Архив торрентов -> Архив Классики, Старого кино, Артхаус Часовой пояс: GMT + 3
Страница 1 из 1