Классический форум-трекер
canvas not supported
Нас вместе: 4 073 177
Loading...

Бумер (2003) HDTVRip [H.264/720p-LQ]


 
 
RSS
Начать новую тему   Ответить на тему    Торрент-трекер NNM-Club -> Отечественное кино -> Отечественные Фильмы (HD*Rip/LQ, DVDRip, SATRip, VHSRip)
Автор Сообщение
vjnjh1984 ®
Стаж: 6 лет 10 мес.
Сообщений: 65
Ratio: 2,894
Поблагодарили: 1477
100%
Откуда: в попе бриллианты :-)
Бумер (2003) HDTVRip
Русское название: Бумер
Год выпуска: 2003
Жанр: Криминал, Драма

Описание фильма:
Никаких законов. Никаких правил. Никого не жалко. Никто не прав. И если мы пока еще не сталкивались с этим в жизни, это не значит, что этого не существует. Скорее, это значит, что нам пока везло. По ночным улицам Москвы мчится черный "BMW", уходящий от погони. Цепь роковых событий с разборками и стрельбой поставила четырех героев — четырех друзей - вне закона. В жизни без правил им нет пути назад, и черный «бумер» — мощный и надежный - уносит их всё дальше от Москвы, в шальную и безжалостную глушь российских дорог…

Режиссер: Петр Буслов
Актеры: Владимир Вдовиченков, Андрей Мерзликин, Максим Коновалов, Сергей Горобченко, Яна Николаева, Людмила Полякова, Анастасия Сапожникова, Василий Седых, Евгений Крайнов, Алексей Зайцев и др.

Продолжительность: 01:49:53



Видеокодек: MPEG-4 AVC/H.264
Битрейт видео: ~1709 Кбит/сек
Размер кадра: 1104x584
Качество видео: HDTVRip
Аудиокодек: AC3 2.0
Битрейт аудио: 192 Кбит/сек

Сэмпл: Ссылка
Общее
Полное имя : Бумер (2003).mkv
Формат : Matroska
Версия формата : Version 2
Размер файла : 1,46 Гбайт
Продолжительность : 1 ч. 49 м.
Общий поток : 1902 Кбит/сек
Название фильма : bumer.2003.vjnjh1984
Дата кодирования : UTC 2012-10-24 21:29:03
Программа кодирования : mkvmerge v5.8.0 ('No Sleep / Pillow') built on Sep 2 2012 15:37:04
Библиотека кодирования : libebml v1.2.3 + libmatroska v1.3.0

Видео
Идентификатор : 1
Формат : AVC
Формат/Информация : Advanced Video Codec
Профиль формата : High@L3.2
Параметр CABAC формата : Да
Параметр ReFrames формата : 8 кадров
Идентификатор кодека : V_MPEG4/ISO/AVC
Продолжительность : 1 ч. 49 м.
Битрейт : 1709 Кбит/сек
Ширина : 1104 пикселя
Высота : 584 пикселя
Соотношение сторон : 1,890
Частота кадров : 25,000 кадров/сек
Цветовое пространство : YUV
Субдискретизация насыщенности : 4:2:0
Битовая глубина : 8 бит
Тип развёртки : Прогрессивная
Бит/(Пиксели*Кадры) : 0.106
Размер потока : 1,28 Гбайт (88%)
Заголовок : bumer.2003.vjnjh1984
Библиотека кодирования : x264 core 125 r2208 d9d2288
Настройки программы : cabac=1 / ref=8 / deblock=1:-1:-1 / analyse=0x3:0x133 / me=umh / subme=9 / psy=1 / psy_rd=1.00:0.10 / mixed_ref=1 / me_range=16 / chroma_me=1 / trellis=2 / 8x8dct=1 / cqm=0 / deadzone=21,11 / fast_pskip=1 / chroma_qp_offset=-3 / threads=3 / lookahead_threads=1 / sliced_threads=0 / nr=0 / decimate=1 / interlaced=0 / bluray_compat=0 / constrained_intra=0 / bframes=3 / b_pyramid=2 / b_adapt=2 / b_bias=0 / direct=3 / weightb=1 / open_gop=0 / weightp=2 / keyint=250 / keyint_min=25 / scenecut=40 / intra_refresh=0 / rc_lookahead=60 / rc=2pass / mbtree=1 / bitrate=1709 / ratetol=1.0 / qcomp=0.60 / qpmin=0 / qpmax=69 / qpstep=4 / cplxblur=20.0 / qblur=0.5 / ip_ratio=1.40 / aq=1:1.00
Default : Да
Forced : Нет

Аудио
Идентификатор : 2
Формат : AC-3
Формат/Информация : Audio Coding 3
Расширение режима : CM (complete main)
Идентификатор кодека : A_AC3
Продолжительность : 1 ч. 49 м.
Вид битрейта : Постоянный
Битрейт : 192 Кбит/сек
Каналы : 2 канала
Расположение каналов : Front: L R
Частота : 48,0 КГц
Битовая глубина : 16 бит
Метод сжатия : С потерями
Размер потока : 151 Мбайт (10%)
Default : Да
Forced : Нет
Скриншоты:


Бумер на NNM-club

Время раздачи: с 9:00 до 21:00
[NNM-Club.ru]_Bumer (2003).mkv.torrent
 Торрент: Платиновая раздача  Зарегистрирован
 
Скачать


Примагнититься
 Зарегистрирован:   02 Ноя 2012 12:56:24
 Размер:   1,46 GB  (
 Рейтинг:   4,7 (Голосов: 178)
 Поблагодарили:   506
 Проверка:   Оформление проверено модератором 03 Ноя 2012 01:12:44
Как cкачать  ·  Как раздать  ·  Правильно оформить  ·  Поднять ратио!  
Slava733
Стаж: 8 лет 10 мес.
Сообщений: 140
Ratio: 2,806
100%
russia.gif
Спасибо ))))
FarenheitHGA
Стаж: 7 лет 8 мес.
Сообщений: 6
Ratio: 4
100%
Агась спасибо))) :НГ_прыжок: :НГ_прыжок:
SprandyGameOne
Стаж: 5 лет 8 мес.
Сообщений: 1
Ratio: 3,828
100%
пацаны крутой фильм, достоин просмотра
FlowJ
Стаж: 8 лет 9 мес.
Сообщений: 53
Ratio: 0,741
Поблагодарили: 16
100%
russia.gif
Ооо спасибо за такое качество. Ещё бы этот супер фильм запустили в 1080р, было бы просто ништяк)
qwert71-
Стаж: 6 лет 3 мес.
Сообщений: 160
Ratio: 97,924
Раздал: 18,01 TB
Поблагодарили: 1368
100%
Откуда: Тула
ussr.gif
Фильм безусловно достоин просмотра. Но нельзя из зверья делать героев, и заставлять зрителя этому зверью сочувствовать.

_________________
Релизер за фильм не отвечает! ИВ.Сталин.
kliffss
Стаж: 11 лет 4 мес.
Сообщений: 44
Ratio: 27,967
100%
latvia.gif
Спасибо!!!!
idenis
Стаж: 9 лет 9 мес.
Сообщений: 356
Ratio: 18,003
100%
Откуда: Белогорск
krevedko.png
qwert71- писал(а): Перейти к сообщению
Фильм безусловно достоин просмотра. Но нельзя из зверья делать героев, и заставлять зрителя этому зверью сочувствовать.


Сочувствие - не та эмоция, которую должен был вызвать этот фильм. В этой картине показано, как лучше не жить, что лучше лишний раз решить всё без стрельбы и разборок.

_________________
LEGALIZE TORRENTS!
LinZiP
Стаж: 7 лет 8 мес.
Сообщений: 534
Ratio: 251,809
Раздал: 30,26 TB
Поблагодарили: 4883
100%
Откуда: Марий Эл, Йошкар-Ола
russia.gif
Бумер (2003) BDRip [H.264/720p-LQ]

_________________

... Music is my life your know, I will never let it go ...
vjnjh1984 ®
Стаж: 6 лет 10 мес.
Сообщений: 65
Ratio: 2,894
Поблагодарили: 1477
100%
Откуда: в попе бриллианты :-)
LinZiP писал(а): Перейти к сообщению
повтор наверное, апконверт делал лично с устранением шумов и кубизма, сравнение случайно не делали?
LinZiP
Стаж: 7 лет 8 мес.
Сообщений: 534
Ratio: 251,809
Раздал: 30,26 TB
Поблагодарили: 4883
100%
Откуда: Марий Эл, Йошкар-Ола
russia.gif
[Хочу Знать], судя по отчёту MediaInfo различаются версии.

_________________

... Music is my life your know, I will never let it go ...
Rostisl@v13
Стаж: 9 лет 3 мес.
Сообщений: 848
Ratio: 10,027
Раздал: 19,48 TB
Поблагодарили: 183
100%
Подскажите пожалуйста, почему нету лучше качества?
resetx
Стаж: 6 лет 5 мес.
Сообщений: 95
Ratio: 17,657
100%
Rostisl@v13 писал(а): Перейти к сообщению
Подскажите пожалуйста, почему нету лучше качества?

Потому что нужен оригинальный носитель, его нет или в архивах валяется. Могли бы сделать после 15 лет . Режиссеры алкаши пропили все. 90 е  ...
dmsushko
Стаж: 8 лет 7 мес.
Сообщений: 545
Ratio: 47,038
Раздал: 47,58 TB
Поблагодарили: 3248
100%
Откуда: Moscow
russia.gif
не прошло n-лет, появился на КиноПоиске в лучшем, чем на DVD, качестве. :клево: ура, товарищи!
з.ы. осталось только сюда раздачу оформить :подмигивание:
Done @ 2019-05-18 07:57

Раздача WEBRip 1024х552, 25 fps, ~4196 kbps

_________________

Показать сообщения:   
Начать новую тему   Ответить на тему    Торрент-трекер NNM-Club -> Отечественное кино -> Отечественные Фильмы (HD*Rip/LQ, DVDRip, SATRip, VHSRip) Часовой пояс: GMT + 3
Страница 1 из 1