Классический форум-трекер
canvas not supported
Нас вместе: 4 077 019

InternetUrok | Чтение 1-4 класс (2011-2013) WEB-DLRip [H.264]


 
 
RSS
Начать новую тему   Ответить на тему    Торрент-трекер NNM-Club -> Видео -> Развивающее Видео для детей
Автор Сообщение
FedExe ®
Uploader 300+
Стаж: 9 лет 2 мес.
Сообщений: 9667
Ratio: 379,678
Поблагодарили: 925572
100%
Откуда: LoX - living off experien
InternetUrok | Чтение 1-4 класс (2011-2013) WEB-DLRip [H.264]
Год выпуска: 2011-2013
Официальный сайт: ссылка
Жанр: Видеоуроки
Вид субтитров: Отсутствуют
Режиссер: InternetUrok
Участники: Все уроки проводят заслуженные учителя России и учителя высших категорий.

Описание фильма:
Видеоуроки по Чтению 1-4 класс от сайта interneturok.ru
Видеоуроки по школьной программе от опытных учителей Санкт-Петербурга и Москвы.
Ученикам - Посмотри видеоурок, чтобы лучше разобраться в теме или наверстать упущенное!
Учителям - Посетите открытый урок опытного коллеги или используйте видео как дополнительный материал
Директорам - Помогите учителю, заменяющему коллегу во время болезни или при отсутствии педагога

Продолжительность: 09:46:33
Качество видео: WEB-DLRip

Видеокодек: MPEG-4 AVC/H.264
Битрейт видео: ~700 Kbps
Размер кадра: 854х480
Аудиокодек: AAC, 2ch
Битрейт аудио: 127 Kbps
А.Толстой «Детство Никиты». Глава «В купальне»
А.Толстой «Детство Никиты». Глава «Стрелка барометра»
А.Чехов «Степь»
А. Шибаев «Кто слово найдёт »
Алфавит. Буква С
Американская сказка «Вот он, вор!»
Армянская сказка. «Заказчик и мастер»
Б.Емельянов «Игра»
Б. Житков «Храбрый утёнок»
Б. Заходер «Как волк песни пел»
Буква Ю и звуки, которые она обозначает
Буквы Я, я. Звуки буквы я
В. Бианки «Неслышимка» (работа в тетради)
В. Драгунский «Заколдованная буква» (Чтение 2 класс)
В. Осеева «Хорошее»,«Просто старушка»
Г. Цыферов «Как цыплёнок впервые сочинил сказку»
Елена Благинина. «Посидим в тишине»
Звук [а], буквы А, а
Звук [й'], буква Й
Звуки [т], [т'] буквы Т, т
Звук и буква И
Звук и буква О
Звук и буква У, у
Звук и буква Э
И. Бунин «Розы»
И.Дик «В дебрях КараБумбы». Глава Удар сабли
И.Дик «В дебрях КараБумбы». Глава Удар сабли . Продолжение (Чтение 3 класс)
И. Крылов «Лебедь, Рак и Щука»
И. Крылов «Мышь и Крыса»
И. Крылов Две бочки
И.Тургенев «Голуби»
Ингушская сказка «Заяц и черепаха»
К.Бальмонт «Капля», Б.Заходер «Что красивей всего »
К. Паустовский «Заячьи лапы»
К. Паустовский «Котворюга»
К. Ушинский «Наше Отечество»; В. Орлов «Родное». Г. Ладонщиков «Скворец на чужбине»
М. Пришвин «Золотой луг»
М.Твен «Приключения Тома Сойера». Глава 8 «Будущий храбрый пират»
М.Твен «Приключения Тома Сойера». Глава 13 «Шайка пиратов поднимает паруса»
М.Твен «Приключения Тома Сойера». Глава 13 «Шайка пиратов поднимает паруса». Продолжение
Русская народная сказка «Марья и ведьмы»
Русская народная сказка «Петушок и бобовое зернышко»
Русская сказка «Петр I и мужик»
С. Голицин «Сорок изыскателей»
С.Голицын «Сорок изыскателей». Глава третья «В поход! В поход! В поход!»
С.Голицын «Сорок изыскателей». Глава четвёртая «Первые неприятности, первые трудности»
С. Михалков «Услужливый», «Заячье горе»
Скороговорки
Э. Мошковская «Обида», «Трудный путь»
Э.Успенский «Дядя Фёдор, пёс и кот» (главы)
Э. Шим «Жук на ниточке». «Очень вредная крапива»
Ю.Ким «Отважный охотник»
General
Format : MPEG-4
Format profile : Base Media
Codec ID : isom
File size : 70.9 MiB
Duration : 11mn 53s
Overall bit rate : 834 Kbps
Encoded date : UTC 2013-08-16 22:13:04
Tagged date : UTC 2013-08-16 22:13:04

Video
ID : 1
Format : AVC
Format/Info : Advanced Video Codec
Format profile : High@L3.0
Format settings, CABAC : Yes
Format settings, ReFrames : 5 frames
Format settings, GOP : M=4, N=25
Codec ID : avc1
Codec ID/Info : Advanced Video Coding
Duration : 11mn 53s
Bit rate mode : Variable
Bit rate : 700 Kbps
Maximum bit rate : 2 186 Kbps
Width : 854 pixels
Height : 480 pixels
Display aspect ratio : 16:9
Original display aspect ratio : 16:9
Frame rate mode : Constant
Frame rate : 25.000 fps
Color space : YUV
Chroma subsampling : 4:2:0
Bit depth : 8 bits
Scan type : Progressive
Bits/(Pixel*Frame) : 0.068
Stream size : 59.6 MiB (84%)
Writing library : x264 core 120 r2146 bcd41db
Encoding settings : cabac=1 / ref=5 / deblock=1:0:0 / analyse=0x3:0x133 / me=hex / subme=7 / psy=0 / mixed_ref=1 / me_range=16 / chroma_me=1 / trellis=1 / 8x8dct=1 / cqm=0 / deadzone=21,11 / fast_pskip=0 / chroma_qp_offset=0 / threads=4 / sliced_threads=0 / nr=0 / decimate=1 / interlaced=0 / bluray_compat=0 / constrained_intra=0 / bframes=3 / b_pyramid=2 / b_adapt=1 / b_bias=0 / direct=1 / weightb=1 / open_gop=0 / weightp=2 / keyint=25 / keyint_min=13 / scenecut=40 / intra_refresh=0 / rc=2pass / mbtree=0 / bitrate=700 / ratetol=1.0 / qcomp=0.60 / qpmin=10 / qpmax=51 / qpstep=4 / cplxblur=20.0 / qblur=0.5 / ip_ratio=1.40 / pb_ratio=1.30 / aq=1:1.00
Language : English
Encoded date : UTC 2013-08-12 08:03:19
Tagged date : UTC 2013-08-16 22:13:05

Audio
ID : 2
Format : AAC
Format/Info : Advanced Audio Codec
Format profile : LC
Codec ID : 40
Duration : 11mn 53s
Bit rate mode : Variable
Bit rate : 127 Kbps
Maximum bit rate : 234 Kbps
Channel(s) : 2 channels
Channel positions : Front: L R
Sampling rate : 44.1 KHz
Compression mode : Lossy
Stream size : 10.8 MiB (15%)
Language : English
Encoded date : UTC 2013-08-16 22:13:04
Tagged date : UTC 2013-08-16 22:13:05
Скриншоты:


Время раздачи: 24/7 (круглосуточно) - до 5 скачавших, далее по возможности. по личной просьбе Коршунов Сергей
Все видеоуроки от InternetUrok на NNM-Club.me
[NNM-Club.me]_InternetUrok CHtenie 1-4 klass (2011-2013) WEB-DLRip.torrent
 Торрент: Платиновая раздача  Зарегистрирован
 
Скачать


Примагнититься
 Зарегистрирован:   16 Окт 2013 23:03:46
 Размер:   1,56 GB  (
 Рейтинг:   4,8 (Голосов: 43)
 Поблагодарили:   176
 Проверка:   Оформление проверено модератором 18 Окт 2013 22:15:44
Как cкачать  ·  Как раздать  ·  Правильно оформить  ·  Поднять ратио!  

_________________

Ну и конечно, данный материал выложен исключительно для ознакомления. После просмотра Вы обязаны удалить все файлы, отформатировать жесткий диск, разбить его молотком, облить кислотой и сжечь остатки в микроволновке.
boykar
Стаж: 9 лет 3 мес.
Сообщений: 49
Ratio: 3,446
100%
Огромное спасибо!
Sheff174
Стаж: 6 лет
Сообщений: 37
Ratio: 5,075
79.02%
Откуда: Урал
russia.gif
Спасибо большущее!!!! :клево:
Yanula78
Стаж: 8 мес. 20 дней
Сообщений: 49
Ratio: 26,606
99.61%
Спасибо!!!
Показать сообщения:   
Начать новую тему   Ответить на тему    Торрент-трекер NNM-Club -> Видео -> Развивающее Видео для детей Часовой пояс: GMT + 3
Страница 1 из 1