Классический форум-трекер
canvas not supported
Нас вместе: 4 079 335

Остаться в Живых / Lost (2004-2010) (2004-2010) BDRip (1-6 сезоны) (121 серии из 121)


Страницы:   Пред.  1, 2 
 
RSS
Начать новую тему   Ответить на тему    Торрент-трекер NNM-Club -> Зарубежные сериалы -> Остаться в живых / Lost
Автор Сообщение
evgenik88 ®
Стаж: 8 лет 6 мес.
Сообщений: 113
Ratio: 51,51
Поблагодарили: 20021
100%
russia.gif

Остаться в Живых / Lost (2004-2010) BDRip [121]
Русское название: Остаться в Живых
Оригинальное название: Lost
Год выпуска: 2004-2010
Страна: США
Жанр: Драма, Мистика, Фантастика
Перевод: Профессиональный (полное дублирование) - Первый канал
Дата мировой премьеры: 22 сентября 2004
Дата российской премьеры: 10 июля 2005
Дата выхода DVD/Blu-Ray релиза: 15 октября 2009
Режиссер: Джек Бендер, Дэниэл Эттиэс, Род Холкомб, Таккер Гейтс, Джей Джей Абрамс
Актеры: Мэттью Фокс, Эванджелин Лили, Нэвин Эндрюс, Терри О'Куинн, Доминик Монаган, Джош Холлоуэй, Мэгги Грэйс, Эмили де Рэйвин, Хорхе Гарсиа, Дэниел Дэй Ким, Ким Юн-чжин, Малкольм Дэвид Келли, Гарольд Перрино

Описание:
Красавец-лайнер, совершающий полет из Сиднея в Лос-Анджелес, неожиданно терпит крушение. 48 пассажиров, оставшихся в живых, оказываются на пустынном острове посреди океана. Люди в панике.
Надежда быть найденными довольно призрачна. Поэтому остается только одно: собраться с силами и постараться выжить на острове, начиненном множеством опасностей…
Продолжительность: ~ 00:44:00
Качество видео: BDRip
Видеокодек: Xvid
Битрейт видео: ~1040 Kbps
Размер кадра: 656x368 (16/9)
Аудиокодек: MP3, 2.0
Битрейт аудио: 128 kbps avg

Общее
Полное имя : C:\Остаться в живых (Сезон 1-6 из 6)\Сезон 1\Lost.s01e01.BDRip.avi
Формат : AVI
Формат/Информация : Audio Video Interleave
Размер файла : 356 Мбайт
Продолжительность : 42 м.
Общий поток : 1177 Кбит/сек
Программа кодирования : VirtualDubMod 1.5.10.3 | www.virtualdub-fr.org || (build 2550/release)
Библиотека кодирования : VirtualDubMod build 2550/release

Видео
Идентификатор : 0
Формат : MPEG-4 Visual
Профиль формата : Advanced Simple@L5
Параметр BVOP формата : 1
Параметр QPel формата : Нет
Параметр GMC формата : Без точки перехода
Параметр матрицы формата : Выборочная
Идентификатор кодека : XVID
Идентификатор кодека/Подсказка : XviD
Продолжительность : 42 м.
Битрейт : 1040 Кбит/сек
Ширина : 656 пикселей
Высота : 368 пикселей
Соотношение сторон : 16:9
Частота кадров : 23,976 кадра/сек
Цветовое пространство : YUV
Субдискретизация насыщенности : 4:2:0
Битовая глубина : 8 бит
Тип развёртки : Прогрессивная
Метод сжатия : С потерями
Бит/(Пиксели*Кадры) : 0.180
Размер потока : 315 Мбайт (88%)
Библиотека кодирования : XviD 63

Аудио
Идентификатор : 1
Формат : MPEG Audio
Версия формата : Version 1
Профиль формата : Layer 3
Режим : Joint stereo
Расширение режима : MS Stereo
Идентификатор кодека : 55
Идентификатор кодека/Подсказка : MP3
Продолжительность : 42 м.
Вид битрейта : Постоянный
Битрейт : 128 Кбит/сек
Каналы : 2 канала
Частота : 48,0 КГц
Метод сжатия : С потерями
Размер потока : 38,8 Мбайт (11%)
Выравнивание : Соединение по промежуткам
Продолжительность промежутка : 42 мс. (1,00 видеокадр)
Время предзагрузки промежутка : 504 мс.

Скриншоты:


Все релизы сериала (Остаться в Живых)

Время раздачи: До первых сидов
[NNM-Club.ru]_Ostat'sya v zhivyih (Sezon 1-6 iz 6).torrent
 Торрент: Платиновая раздача  Зарегистрирован
 
Скачать


 Зарегистрирован:   26 Мар 2013 19:21:54
 Размер:   42,1 GB  (
 Рейтинг:   5 (Голосов: 403)
 Поблагодарили:   1286
 Проверка:   Оформление проверено модератором 28 Мар 2013 07:07:55
Как cкачать  ·  Как раздать  ·  Правильно оформить  ·  Поднять ратио!  
Liolik26
 
Стаж: 7 лет 5 мес.
Сообщений: 33
Ratio: 49,879
100%
Откуда: Волноваха
ussr.gif
Шедевральный сериал!! :респект:
CSE13
Стаж: 5 лет 11 мес.
Сообщений: 11
Ratio: 3,328
100%
спасибо за раздачу, все не хватало времени на просмотр данного сериала. теперь посмотрю все разом.
lpmast
Стаж: 8 лет 2 мес.
Сообщений: 11
Ratio: 1,111
Раздал: 266 GB
0%
А перевод оригинальный?

Добавлено спустя 7 минут 14 секунд:

это не тот перевод который мне нужен! Подскажите где можно скачать все 6 сезонов с другим оригинальным переводом!
senator56
Стаж: 9 лет 8 мес.
Сообщений: 219
Ratio: 6,548
Поблагодарили: 22
100%
ussr.gif
на первом канале сил не хватило смотреть да и возможности иногда не было. Вот скачал посмотрел, сериал просто шикарный сморится очень легко игра актеров прекрасная. В сериале есть все любовь и ненависть, добро и зло. Кароче я не кинокритик и писать красиво не умею, просто советую всем скачать и посмотреть, обалденный сериал!!!! Смотрел последнюю серию наплакался. Даже не верилось что приключения подошли к своему финалу. Раздающему большой :респект: Ставлю лайк.

_________________
Экономьте электричество! Выключайте Num Lock!
alexkyrpa
Стаж: 6 лет 5 мес.
Сообщений: 5
Ratio: 10,541
12.8%
английская озвучка есть?
stalker4000
Стаж: 7 лет 2 мес.
Сообщений: 129
Ratio: 116,82
Поблагодарили: 1372
100%
ussr.gif
Шестой сезон с закадровым переводом или полноценный дубляж ?
На Первом канале 6 сезон был с закадровым переводом.
Sansey750
Стаж: 8 лет 6 мес.
Сообщений: 18
Ratio: 75,053
100%
russia.gif
Мега раздача!!!
unitvip
Стаж: 5 лет 11 мес.
Сообщений: 25
Ratio: 10,071
100%
Спасибо огромное.
fatalyst99
Стаж: 7 лет 8 мес.
Сообщений: 45
Ratio: 15,583
100%
Ох!!! Недавно досмотрел. Огромное спасибо создателям этого сериала. От души как говорится. Всем кто не смотрел - рекомендую настоятельно. Не шедевр конечно, но внимания стоит.
Макс_90
Стаж: 8 лет 4 мес.
Сообщений: 17
Ratio: 57,86
100%
Друзья, а оригинальная английская аудиодорожка с английскими субтитрами здесь есть?
Показать сообщения:   
Начать новую тему   Ответить на тему    Торрент-трекер NNM-Club -> Зарубежные сериалы -> Остаться в живых / Lost Часовой пояс: GMT + 3
Страницы:   Пред.  1, 2
Страница 2 из 2