Классический форум-трекер
canvas not supported
Нас вместе: 4 077 804

Ночные ястребы / NightHawks (1981) DVD5


 
 
RSS
Начать новую тему   Ответить на тему    Торрент-трекер NNM-Club -> Классика кино и Старые фильмы до 90-х -> Старые Зарубежные Фильмы (DVD)
Автор Сообщение
rostik973 ®
Стаж: 9 лет 8 мес.
Сообщений: 800
Ratio: 31,199
Поблагодарили: 48977
100%
Откуда: Киев
ukraine.gif
Ночные ястребы / NightHawks (1981) DVD5
Русское название: Ночные ястребы
Оригинальное название: NightHawks
Год выпуска: 1981
Жанр: Боевик

Описание фильма:
Крутой нью-йоркский полицейский Дик да Силва, склонный в критические моменты переодеваться в женское платье, ловит Вулфгара, международного террориста-энтузиаста (выпускника Университета дружбы народов имени Патриса Лумумбы, кстати), предпочитающего в те же моменты безжалостно отправлять на тот свет своих любовниц. Вулфгар, самый опасный террорист в Европе, внезапно заявляет о своем присутствии в Нью-Йорке целой серией взрывов, а двое самых крутых полицейских, Дик да Силва и его напарник Уиллис Фокс, получают труднейшее задание найти и остановить маньяка. В жестокой игре в кошки-мышки террористу удается подстрелить агента Уиллиса и захватить в заложники дипломатов ООН...

Режиссер: Брюс Мэлмат
Актеры: Сильвестр Сталлоне, Билли Ди Уильямс, Линдсэй Вагнер, Персис Хамбатта, Найджел Дэвенпорт, Рутгер Хауэр, Хилари Томпсон, Джо Спинелл, Уолтер Мэтьюз, Э. Брайан Дин

Продолжительность: 01:35:09
Перевод: Многоголосый закадровый
Автор перевода: Гаврилов А;Михалев А
Язык субтитров: английские,немецкие,голландские
Вид субтитров: Вшитые



Видеокодек: MPEG-2
Битрейт видео: ~4586kb/s
Размер кадра: PAL 16:9 (720x576) VBR
Качество видео: DVD5
Аудиодорожка 1: AC3 5.1, 384 kbps,Русский (многоголосый закадровый)
Аудиодорожка 2: AC3 2.0, 192 kbps, Русский(одноголосый закадровый)-А.Гаврилов
Аудиодорожка 3: AC3 2.0, 192 kbps, Русский(одноголосый закадровый)-А.Михалев
Аудиодорожка 4: AC3 2.0, 192 kbps, Английский(оригинал)
Аудиодорожка 5: AC3 2.0, 192 kbps, Немецкий(дубляж)
Title: Локальный диск
Size: 4.37 Gb ( 4 577 592 KBytes ) - DVD-5
Enabled regions: 1, 2, 3, 4, 5, 6, 7, 8

VTS_01 :
Play Length: 01:35:09
Video: PAL 16:9 (720x576) VBR, Auto Letterboxed
Audio:
Russian (Dolby AC3, 6 ch)
Russian (Dolby AC3, 2 ch)
Russian (Dolby AC3, 2 ch)
English (Dolby AC3, 2 ch)
Deutsch (Dolby AC3, 2 ch)
Subtitles:
English
Deutsch
Nederlands
Svenska
Norsk

VTS_02 :
Play Length:
Video: PAL 4:3 (720x576) VBR
Audio:
English (Dolby AC3, 2 ch)
English (Dolby AC3, 2 ch)
English (Dolby AC3, 2 ch)
English (Dolby AC3, 2 ch)
Общее
Полное имя : D:\Фильмы\NightHawks\VIDEO_TS\VTS_01_1.VOB
Формат : MPEG-PS
Размер файла : 1024 Мбайт
Продолжительность : 24 м.
Режим общего битрейта : Переменный
Общий поток : 5854 Кбит/сек

Видео
Идентификатор : 224 (0xE0)
Формат : MPEG Video
Версия формата : Version 2
Профиль формата : Main@Main
Параметр BVOP формата : Да
Параметр матрицы формата : Выборочная
Параметр GOP формата : M=3, N=12
Продолжительность : 24 м.
Вид битрейта : Переменный
Битрейт : 4586 Кбит/сек
Максимальный битрейт : 8000 Кбит/сек
Ширина : 720 пикселей
Высота : 576 пикселей
Соотношение сторон : 16:9
Частота кадров : 25,000 кадров/сек
Стандарт вещания : PAL
Цветовое пространство : YUV
Субдискретизация насыщенности : 4:2:0
Битовая глубина : 8 бит
Тип развёртки : Чересстрочная
Порядок развёртки : Верхнее поле первое
Метод сжатия : С потерями
Бит/(Пиксели*Кадры) : 0.442
Размер потока : 802 Мбайт (78%)

Аудио #1
Идентификатор : 189 (0xBD)-128 (0x80)
Формат : AC-3
Формат/Информация : Audio Coding 3
Расширение режима : CM (complete main)
Режим смешивания : DVD-Video
Продолжительность : 24 м.
Вид битрейта : Постоянный
Битрейт : 384 Кбит/сек
Каналы : 6 каналов
Расположение каналов : Front: L C R, Side: L R, LFE
Частота : 48,0 КГц
Битовая глубина : 16 бит
Метод сжатия : С потерями
Задержка видео : -80 мс.
Размер потока : 67,2 Мбайт (7%)

Аудио #2
Идентификатор : 189 (0xBD)-129 (0x81)
Формат : AC-3
Формат/Информация : Audio Coding 3
Расширение режима : CM (complete main)
Режим смешивания : DVD-Video
Продолжительность : 24 м.
Вид битрейта : Постоянный
Битрейт : 192 Кбит/сек
Каналы : 2 канала
Расположение каналов : Front: L R
Частота : 48,0 КГц
Битовая глубина : 16 бит
Метод сжатия : С потерями
Задержка видео : -80 мс.
Размер потока : 33,6 Мбайт (3%)

Аудио #3
Идентификатор : 189 (0xBD)-130 (0x82)
Формат : AC-3
Формат/Информация : Audio Coding 3
Расширение режима : CM (complete main)
Режим смешивания : DVD-Video
Продолжительность : 24 м.
Вид битрейта : Постоянный
Битрейт : 192 Кбит/сек
Каналы : 2 канала
Расположение каналов : Front: L R
Частота : 48,0 КГц
Битовая глубина : 16 бит
Метод сжатия : С потерями
Задержка видео : -80 мс.
Размер потока : 33,6 Мбайт (3%)

Аудио #4
Идентификатор : 189 (0xBD)-131 (0x83)
Формат : AC-3
Формат/Информация : Audio Coding 3
Расширение режима : CM (complete main)
Режим смешивания : DVD-Video
Продолжительность : 24 м.
Вид битрейта : Постоянный
Битрейт : 192 Кбит/сек
Каналы : 2 канала
Расположение каналов : Front: L R
Частота : 48,0 КГц
Битовая глубина : 16 бит
Метод сжатия : С потерями
Задержка видео : -80 мс.
Размер потока : 33,6 Мбайт (3%)

Аудио #5
Идентификатор : 189 (0xBD)-132 (0x84)
Формат : AC-3
Формат/Информация : Audio Coding 3
Расширение режима : CM (complete main)
Режим смешивания : DVD-Video
Продолжительность : 6 с. 368 мс.
Вид битрейта : Постоянный
Битрейт : 192 Кбит/сек
Каналы : 2 канала
Расположение каналов : Front: L R
Частота : 48,0 КГц
Битовая глубина : 16 бит
Метод сжатия : С потерями
Размер потока : 149 Кбайт (0%)

Текст #1
Идентификатор : 189 (0xBD)-32 (0x20)
Формат : RLE
Формат/Информация : Run-length encoding
Режим смешивания : DVD-Video

Текст #2
Идентификатор : 189 (0xBD)-33 (0x21)
Формат : RLE
Формат/Информация : Run-length encoding
Режим смешивания : DVD-Video

Меню
-удалены ( рекламный видеоролик)
-удалены субтитры(шведские, норвежские, датские, финские)
Скриншоты:




Время раздачи: С 16:00 до 22:30
[NNM-Club.ru]_NightHawks.torrent
 Торрент: Платиновая раздача  Зарегистрирован
 
Скачать


 Зарегистрирован:   25 Дек 2011 03:17:35
 Размер:   4,37 GB  (
 Рейтинг:    (Голосов: 9)
 Поблагодарили:   40
 Проверка:   Оформление проверено модератором 25 Дек 2011 10:52:16
Как cкачать  ·  Как раздать  ·  Правильно оформить  ·  Поднять ратио!  
dennrichman
Стаж: 2 года 10 мес.
Сообщений: 10
33.33%
Нет никого на раздаче - очень жаль. Я бы хотел скачать этот фильм, но не получается.
Сидеры и скачавшие - вы где?
Показать сообщения:   
Начать новую тему   Ответить на тему    Торрент-трекер NNM-Club -> Классика кино и Старые фильмы до 90-х -> Старые Зарубежные Фильмы (DVD) Часовой пояс: GMT + 3
Страница 1 из 1