Классический форум-трекер
canvas not supported
Нас вместе: 4 077 174

Преступление в маленьком городе / Small Town Crime (2017) BDRemux [H.264/1080p] [EN / EN, Sp Sub]


 
 
RSS
Начать новую тему   Ответить на тему    Торрент-трекер NNM-Club -> Зарубежное кино -> Фильмы в оригинале (HD, UHD, UHD-LQ)
Автор Сообщение
smaster67 ®
Модератор Видео
Покровитель талантов Uploader 300+
Стаж: 10 лет 1 мес.
Сообщений: 7118
Ratio: 225,626
Поблагодарили: 215243
100%
Преступление в маленьком городе / Small Town Crime (2017) BDRemux [H.264/1080p] [EN / EN, Sp Sub]

Производство: США / 6 Foot Films, Avva Pictures, DirecTV
Жанр: триллер, криминал, детектив

Режиссер: Йен Нелмс
Актеры: Джон Хоукс, Энтони Андерсон, Октавия Спенсер, Роберт Форстер, Клифтон Коллинз мл., Джереми Рэчфорд, Джеймс Лэфферти, Майкл Вартан, Дэниел Сунджата, Дон Харви, Стефани Скотт, Кейти Лотц

Описание:
Отставной полицейский, злоупотребляющий выпивкой, находит тело убитой девушки. Он берется за расследование как за последний шанс на реабилитацию, однако рьяные поиски убийцы заводят героя в столь темные дебри, что под угрозой оказываются все его близкие...


Рейтинг MPAA: R (лицам до 17 лет обязательно присутствие взрослого)

Продолжительность: 01:32:06
Качество видео: BDRemux
Перевод: Отсутствует
Язык озвучки: Английский
Субтитры: английские, испанские

Видео: AVC, 1920x1080 (16:9), 29800 kbps, 23.976 fps, 0.599 bpp
Аудио №1: английский / DTS-HD / 5.1 / 48 kHz / 3560 kbps / 24 bit (Core: 5.1 / 48 kHz / 1509 kbps / 24 bit)
Аудио №2: английский / AC3 / 2.0 / 48 kHz / 192 kbps /
Аудио №3: английский / AC3 / 2.0 / 48 kHz / 192 kbps /
Аудио №4: английский / AC3 / 2.0 / 48 kHz / 192 kbps /
Код: выделить все
General
Unique ID                               Small.Town.Crime.2017.1080p.BluRay.REMUX.AVC.DTS-HD.MA.5.1-[NNM-Club.me].mkv
Format                                   : Matroska
Format version                           : Version 4 / Version 2
File size                                : 21.9 GiB
Duration                                 : 1 h 32 min
Overall bit rate mode                    : Variable
Overall bit rate                         : 34.0 Mb/s
Movie name                               : Small Town Crime (2017)
Encoded date                             : UTC 2018-03-15 01:28:24
Writing application                      : mkvmerge v20.0.0 ('I Am The Sun') 64-bit
Writing library                          : libebml v1.3.5 + libmatroska v1.4.8

Video
ID                                       : 1
Format                                   : AVC
Format/Info                              : Advanced Video Codec
Format profile                           : High@L4.1
Format settings, CABAC                   : Yes
Format settings, ReFrames                : 4 frames
Codec ID                                 : V_MPEG4/ISO/AVC
Duration                                 : 1 h 32 min
Bit rate mode                            : Variable
Bit rate                                 : 29.8 Mb/s
Maximum bit rate                         : 35.0 Mb/s
Width                                    : 1 920 pixels
Height                                   : 1 080 pixels
Display aspect ratio                     : 16:9
Frame rate mode                          : Constant
Frame rate                               : 23.976 (24000/1001) FPS
Color space                              : YUV
Chroma subsampling                       : 4:2:0
Bit depth                                : 8 bits
Scan type                                : Progressive
Bits/(Pixel*Frame)                       : 0.599
Stream size                              : 19.2 GiB (88%)
Title                                    : MPEG-4 AVC Video / 29994 kbps / 1080p / 23.976 fps / 16:9 / High Profile 4.1
Language                                 : English
Default                                  : Yes
Forced                                   : No

Audio #1
ID                                       : 2
Format                                   : DTS
Format/Info                              : Digital Theater Systems
Format profile                           : MA / Core
Mode                                     : 16
Format settings, Endianness              : Big
Codec ID                                 : A_DTS
Duration                                 : 1 h 32 min
Bit rate mode                            : Variable / Constant
Bit rate                                 : 3 560 kb/s / 1 509 kb/s
Channel(s)                               : 6 channels
Channel positions                        : Front: L C R, Side: L R, LFE
Sampling rate                            : 48.0 kHz
Frame rate                               : 93.750 FPS (512 spf)
Bit depth                                : 24 bits
Compression mode                         : Lossless / Lossy
Stream size                              : 2.29 GiB (10%)
Title                                    : DTS-HD Master Audio / 5.1 / 48 kHz / 3560 kbps / 24-bit
Language                                 : English
Default                                  : Yes
Forced                                   : No

Audio #2
ID                                       : 3
Format                                   : AC-3
Format/Info                              : Audio Coding 3
Mode extension                           : CM (complete main)
Format settings, Endianness              : Big
Codec ID                                 : A_AC3
Duration                                 : 1 h 32 min
Bit rate mode                            : Constant
Bit rate                                 : 192 kb/s
Channel(s)                               : 2 channels
Channel positions                        : Front: L R
Sampling rate                            : 48.0 kHz
Frame rate                               : 31.250 FPS (1536 spf)
Compression mode                         : Lossy
Stream size                              : 126 MiB (1%)
Title                                    : Commentary by co-directors Eshom Nelms and Ian Nelms
Language                                 : English
Default                                  : No
Forced                                   : No

Audio #3
ID                                       : 4
Format                                   : AC-3
Format/Info                              : Audio Coding 3
Mode extension                           : CM (complete main)
Format settings, Endianness              : Big
Codec ID                                 : A_AC3
Duration                                 : 1 h 32 min
Bit rate mode                            : Constant
Bit rate                                 : 192 kb/s
Channel(s)                               : 2 channels
Channel positions                        : Front: L R
Sampling rate                            : 48.0 kHz
Frame rate                               : 31.250 FPS (1536 spf)
Compression mode                         : Lossy
Stream size                              : 126 MiB (1%)
Title                                    : Commentary by co-directors Eshom Nelms and Ian Nelms, and actors John Hawkes and Octavia Spencer
Language                                 : English
Default                                  : No
Forced                                   : No

Audio #4
ID                                       : 5
Format                                   : AC-3
Format/Info                              : Audio Coding 3
Mode extension                           : CM (complete main)
Format settings, Endianness              : Big
Codec ID                                 : A_AC3
Duration                                 : 1 h 32 min
Bit rate mode                            : Constant
Bit rate                                 : 192 kb/s
Channel(s)                               : 2 channels
Channel positions                        : Front: L R
Sampling rate                            : 48.0 kHz
Frame rate                               : 31.250 FPS (1536 spf)
Compression mode                         : Lossy
Stream size                              : 126 MiB (1%)
Title                                    : Technical commentary by cinematographer Johnny Derango, producer Brad Johnson and music composer Chris Westlake
Language                                 : English
Default                                  : No
Forced                                   : No

Text #1
ID                                       : 6
Format                                   : PGS
Codec ID                                 : S_HDMV/PGS
Codec ID/Info                            : Picture based subtitle format used on BDs/HD-DVDs
Duration                                 : 1 h 28 min
Bit rate                                 : 39.8 kb/s
Count of elements                        : 3226
Stream size                              : 25.3 MiB (0%)
Title                                    : SDH
Language                                 : English
Default                                  : No
Forced                                   : No

Text #2
ID                                       : 7
Format                                   : PGS
Codec ID                                 : S_HDMV/PGS
Codec ID/Info                            : Picture based subtitle format used on BDs/HD-DVDs
Duration                                 : 1 h 29 min
Bit rate                                 : 29.8 kb/s
Count of elements                        : 2168
Stream size                              : 19.0 MiB (0%)
Title                                    : Latin American
Language                                 : Spanish
Default                                  : No
Forced                                   : No

Menu
00:00:00.000                             : en:Chapter 1
00:05:43.635                             : en:Chapter 2
00:10:13.947                             : en:Chapter 3
00:17:14.283                             : en:Chapter 4
00:23:22.610                             : en:Chapter 5
00:28:33.378                             : en:Chapter 6
00:34:49.879                             : en:Chapter 7
00:39:59.522                             : en:Chapter 8
00:45:52.458                             : en:Chapter 9
00:51:28.294                             : en:Chapter 10
00:57:14.723                             : en:Chapter 11
01:03:39.607                             : en:Chapter 12
01:09:54.440                             : en:Chapter 13
01:14:23.959                             : en:Chapter 14
01:22:05.462                             : en:Chapter 15
01:27:06.888                             : en:Chapter 16

Скриншоты:



Все одноименные релизы в Клубе

Время раздачи: с 13:00 до 23:00
[NNM-Club.me]_Small.Town.Crime.2017.1080p.BluRay.REMUX.AVC.DTS-HD.MA.5.1-[NNM-Club.me].mkv.torrent
 Торрент: Платиновая раздача  Зарегистрирован
 
Скачать


Примагнититься
 Зарегистрирован:   15 Мар 2018 22:59:00
 Размер:   21,9 GB  (
 Рейтинг:    (Голосов: 4)
 Поблагодарили:   44
 Проверка:   Оформление проверено модератором 15 Мар 2018 23:05:28
Как cкачать  ·  Как раздать  ·  Правильно оформить  ·  Поднять ратио!  
compositor67
Стаж: 7 лет 2 мес.
Сообщений: 4
Ratio: 4,617
58.96%
На другом ресурсе есть отличная озвучка, но качество WEB-DL.
igor0208
Стаж: 11 лет 4 мес.
Сообщений: 113
Ratio: 85,573
Раздал: 42,99 TB
Поблагодарили: 263
16.77%
Откуда: Москва
russia.gif
Прошу раздать фильм
Показать сообщения:   
Начать новую тему   Ответить на тему    Торрент-трекер NNM-Club -> Зарубежное кино -> Фильмы в оригинале (HD, UHD, UHD-LQ) Часовой пояс: GMT + 3
Страница 1 из 1