Классический форум-трекер
canvas not supported
Нас вместе: 4 079 201

Станислав Лем | Эдем (1994) [M4B|AAC]


 
 
RSS
Начать новую тему   Ответить на тему    Торрент-трекер NNM-Club -> Аудио и Видео -> Аудиокниги (AAC)
Автор Сообщение
igooru ®
Стаж: 9 лет 8 мес.
Сообщений: 52
Ratio: 2,562
Раздал: 919 GB
Поблагодарили: 4601
100%
ussr.gif
Станислав Лем | Эдем
Автор: Станислав Лем
Год: 1994
Жанр: Фантастика
Продолжительность: 09:39:04
Перевод: Дмитрий Брускин
Исполнитель: Вячеслав Герасимов
По изданию: Лем С. Избранное Л.: Лениздат, 1981. – 672 с.
Издательство: Нигде не купишь

Описание: Экипаж космического корабля терпит крушение на неисследованной планете, которую космопроходцы называют Эдемом. Люди сталкиваются с обществом, где Власть отрицает собственное существование и таким образом является неуязвимой. Даже концентрационные лагеря в этом обществе не нуждаются в охране, они разработаны так, что заключенные остаются в аду добровольно. Удасться ли выжить нашим героям в этом непостижимом мире?..

Формат: M4B
Аудиокодек: AAC
Битрейт: 128 kbps
Частота: 44,1 KHz
Разбивка на части: нет
Разбивка на главы: есть
Вшитые обложки: есть
Музыкальное сопровождение: нет

Общее
Полное имя : /Станислав Лем/Эдем (читает Вячеслав Герасимов)/Эдем.m4b
Формат : MPEG-4
Профиль формата : Base Media / Version 2
Идентификатор кодека : mp42 (mp42/mp41)
Размер файла : 384 Мбайт
Продолжительность : 9 ч. 39 м.
Режим общего битрейта : Постоянный
Общий поток : 92,7 Кбит/сек
Название фильма : Эдем
Альбом : Эдем
Альбом/Исполнитель : Станислав Лем
Трек/Положение : 1
Трек/Всего : 1
Исполнитель : Станислав Лем
Исполнитель/Сортировать по : Станислав Лем
Композитор : Вячеслав Герасимов
Жанр : фантастика, роман
Тип содержимого : Audiobook
Описание : Экипаж космического корабля терпит крушение на планете Эдем. Люди сталкиваются с обществом, где Власть отрицает собственное существование и таким образом является неуязвимой. Сумеют ли выжить космопроходцы в этом чуждом, непостижимом мире?…
Дата записи : 1994
Дата кодирования : UTC 2016-05-09 12:05:11
Дата пометки : UTC 2016-05-09 15:25:17
Программа кодирования : Rusticus IV для библиотеки WWW.AUDIOKNIGA.ORG / QuickTime 7.7.3
Авторское право : Stanislaw Lem
Обложка : Yes
Текст песен : Станислав Лем, Stanislaw Lem, Эдем, Eden, Дмитрий Брускин, Вячеслав Герасимов, аудиокнига, роман, фантастика, audiobook, audiokniga.org
Примечание : Перевод с польского Дмитрий Брускин
LongDescription : Экипаж космического корабля терпит крушение на неисследованной планете, которую космопроходцы называют Эдемом. Люди сталкиваются с обществом, где Власть отрицает собственное существование и таким образом является неуязвимой. Даже концентрационные лагеря в этом обществе не нуждаются в охране, они разработаны так, что заключенные остаются в аду добровольно. Удасться ли выжить нашим героям в этом непостижимом мире?..

Видео
Идентификатор : 2
Формат : JPEG
Идентификатор кодека : jpeg
Продолжительность : 9 ч. 39 м.
Вид битрейта : Постоянный
Битрейт : 11 бит/сек
Ширина : 512 пикселей
Высота : 512 пикселей
Соотношение сторон : 1,000
Режим частоты кадров : Постоянный
Частота кадров : 0,000 кадр/сек
Цветовое пространство : YUV
Субдискретизация насыщенности : 4:2:0
Битовая глубина : 8 бит
Метод сжатия : С потерями
Размер потока : 46,7 Кбайт (0%)
Язык : English
Дата кодирования : UTC 2016-05-09 12:06:09
Дата пометки : UTC 2016-05-09 12:06:11
Menu For : 1

Аудио
Идентификатор : 1
Формат : AAC
Формат/Информация : Advanced Audio Codec
Профиль формата : LC
Идентификатор кодека : 40
Продолжительность : 9 ч. 39 м.
Продолжительность оригинала : 9 ч. 39 м.
Вид битрейта : Постоянный
Битрейт : 90,8 Кбит/сек
Номинальный битрейт : 128 Кбит/сек
Каналы : 2 канала
Расположение каналов : Front: L R
Частота : 44,1 КГц
Частота кадров : 43,066 кадра/сек (1024 spf)
Метод сжатия : С потерями
Размер потока : 376 Мбайт (98%)
Размер потока оригинала : 376 Мбайт (98%)
Язык : English
Дата кодирования : UTC 2016-05-09 12:05:00
Дата пометки : UTC 2016-05-09 15:25:17
Menus : 3,2

Меню
Идентификатор : 3
Идентификатор кодека : text
Продолжительность : 9 ч. 39 м.
Язык : English
Дата кодирования : UTC 2016-05-09 12:06:09
Дата пометки : UTC 2016-05-09 12:06:11
Menu For : 1
00:00:00.000 : Глава 1
00:41:15.911 : Глава 2
01:49:20.518 : Глава 3
02:23:00.175 : Глава 4
03:13:09.035 : Глава 5
03:39:25.261 : Глава 6
04:12:43.995 : Глава 7
05:18:49.171 : Глава 8
05:46:27.681 : Глава 9
06:45:29.935 : Глава 10
07:03:22.831 : Глава 11
07:22:36.450 : Глава 12
08:15:59.086 : Глава 13
09:14:29.758 : Глава 14
Вид битрейта : VBR
торрент обновлён 16.05.2016
[NNMClub.to]_Stanislaw Lem - Eden.torrent
 Торрент: Платиновая раздача  Зарегистрирован
 
Скачать


Примагнититься
 Зарегистрирован:   16 Май 2016 13:18:12
 Размер:   384 MB  (
 Рейтинг:   4,9 (Голосов: 43)
 Поблагодарили:   198
 Проверка:   Оформление проверено модератором 19 Май 2016 11:58:59
Как cкачать  ·  Как раздать  ·  Правильно оформить  ·  Поднять ратио!  
weisco
Стаж: 6 лет 3 мес.
Сообщений: 2
Ratio: 4,005
1.09%
kazakhstan.gif
как книга, отпишитесь.
Aleksey_N
Стаж: 8 лет 4 мес.
Сообщений: 19
Ratio: 17,901
100%
ussr.gif
Для начала дождаться бы докачки :)
Benimeda
Стаж: 6 лет 9 мес.
Сообщений: 10
Ratio: 8,939
55%
Дурацкое модулирование голосом делает прослушивание от Герасимова совершенно невыносимым.
Показать сообщения:   
Начать новую тему   Ответить на тему    Торрент-трекер NNM-Club -> Аудио и Видео -> Аудиокниги (AAC) Часовой пояс: GMT + 3
Страница 1 из 1