Классический форум-трекер
canvas not supported
Нас вместе: 4 079 175

P·A·L (P.A.L, PAL, P•A•L) - Discography 16 Releases (1993-2011) Ant-Zen [FLAC|Lossless|tracks+.cue, tracks] <Rhythmic Noise, Industrial, Ambient, IDM, Experimental>


 
 
RSS
Начать новую тему   Ответить на тему    Торрент-трекер NNM-Club -> Electronic -> Experimental, Industrial, EBM, Dark Electro (Lossless)
Автор Сообщение
vilator ®
Модератор Музыки
RG Music
 
Стаж: 10 лет 5 мес.
Сообщений: 9433
Ratio: 175,29
Поблагодарили: 191349
100%
Откуда: Minsk
pirates.png


Название проекта P·A·L происходит от первых букв фамилии его создателя и единственного участника Кристиана Паллентина (Christian Pallentin).
Кристиан начинает свои музыкальные эксперименты в 1986 году, а в 1993-ом он знакомится с хозяином культового немецкого ритм-нойз лэйбла Ant-Zen Штефаном Альтом, который берет для одной из своих компиляций трек Паллентина. Начиная с этого релиза его музыка начинает почти всегда издаваться под именем P·A·L, исключение составляет лишь компиляционный трек, вышедший под именем Pro/Against Life, и ремикс, сделанный совместно со Штефаном Альтом, выпущенный под именем S.A.L. Кроме того, Кристиан принимал участие в коллективах Andxesion (сайд-проект Noisex) и Hybryds. P·A·L дважды выступал на фестивале Wave-Gotik-Treffen в 1996-ом и 2001-ом годах, принимал участие на самом первом фестивале Maschinenfest в 1999-ом году, возвращаясь на этот ежегодный главный праздник ритм-нойзовой сцены еще трижды — в 2001-ом, 2006-ом и 2008-ом годах. Всего за свою творческую деятельность Кристиан дал более 70 концертов в Европе и Северной Америке.

Жанр: Rhythmic Noise, Industrial, Ambient, Noise, IDM, Experimental • Страна: Germany • Год: 1993-2011 • Тип издания: CD, Cassette, WEB
Аудиокодек: FLAC • Тип рипа: tracks+.cue, tracks • Продолжительность: 12:15:32 • Источник: What, niceolum, bandcamp • Наличие сканов: Да
Треклист:
Год выпуска: 1993
Продолжительность: 00:37:37
Треклист:

01. Concrete Rage I (12:14)
02. U-Kay Decay (10:56)
03. Screw The Past (06:53)
04. Forneria (03:59)
05. Concrete Rage II (03:35)

-----------------------

DON'T MODIFY THIS FILE

-----------------------

PERFORMER: auCDtect Task Manager, ver. 1.6.0 RC1 build 1.6.0.1
Copyright (c) 2008-2010 y-soft. All rights reserved
http://y-soft.org

ANALYZER: auCDtect: CD records authenticity detector, version 0.8.2
Copyright (c) 2004 Oleg Berngardt. All rights reserved.
Copyright (c) 2004 Alexander Djourik. All rights reserved.

FILE: 02. U-Kay Decay.flac
Size: 72440202 Hash: 1184537FCB98C91FDA475315D358ECE3 Accuracy: -m0
Conclusion: CDDA 100%
Signature: DF54255BAB42E705EA5E1B3B003CE1932720FADD
FILE: 01. Concrete Rage I.flac
Size: 79192486 Hash: 0C9BA23F257ACCE68D20A107B386FDFF Accuracy: -m0
Conclusion: CDDA 99%
Signature: 8BE8C38D98B7E79F4444B1BFD707D39F42313DC3
FILE: 05. Concrete Rage II.flac
Size: 24292462 Hash: 9A783B28B2F25F036736F1B0A3768350 Accuracy: -m0
Conclusion: CDDA 100%
Signature: BD2F8B880777CCD7F19CEEEE8CAD7E6CAC04241D
FILE: 04. Forneria.flac
Size: 27655858 Hash: 09AAECD20AF9476F4815E5D762CF662A Accuracy: -m0
Conclusion: CDDA 100%
Signature: 536BBC75046BFCE97247FAF418880B8CE0D93573
FILE: 03. Screw The Past.flac
Size: 46668311 Hash: 823979AB81A921A1D2D5036CB5222142 Accuracy: -m0
Conclusion: CDDA 100%
Signature: F2154CAF2D8AB946B8DC3BA66AD07F00C642F9F8

Cassette
TASCAM 112RmkII
Soundblaster Audigy 2 ZS
Steinberg Wavelab (96KHz / 26-bit)

Alterations:
Tracks split
Tape hiss reduced
Normalized to 0dB
Downsampled to 44.1KHz / 16-bit Wave
Год выпуска: 1994
Продолжительность: 00:52:46
Треклист:

01. Workout (02:38)
02. Josef Reiserer's Dead (03:53)
03. Concrete-Noise-Nothing (04:27)
04. Career's End (03:26)
05. Spark A Venge (07:34)
06. Intro (02:48)
07. Terrible Hangdown (04:49)
08. Screech (04:05)
09. Shiftwork (04:15)
10. Concrete Rage/Outro (07:19)
11. Untitled (Agitation) (07:32)

-----------------------

DON'T MODIFY THIS FILE

-----------------------

PERFORMER: auCDtect Task Manager, ver. 1.6.0 RC1 build 1.6.0.1
Copyright (c) 2008-2010 y-soft. All rights reserved
http://y-soft.org

ANALYZER: auCDtect: CD records authenticity detector, version 0.8.2
Copyright (c) 2004 Oleg Berngardt. All rights reserved.
Copyright (c) 2004 Alexander Djourik. All rights reserved.

FILE: 11. Untitled (Agitation).flac
Size: 29725641 Hash: CD9EB33814067CC1ABE46B1210934FC9 Accuracy: -m0
Conclusion: CDDA 100%
Signature: A2B4915D49F517E7D4DAA9D7F0CE6A6F260BD338
FILE: 10. Concrete Rage,Outro.flac
Size: 30258787 Hash: BED906EF2650D96AB121AFA9750733AB Accuracy: -m0
Conclusion: CDDA 99%
Signature: CBA5E438D1CF2F6274F8AB5FD305E8BC726283E2
FILE: 09. Shiftwork.flac
Size: 20964857 Hash: 1417FC1BC093DDBA584B4661ADE405E6 Accuracy: -m0
Conclusion: CDDA 100%
Signature: F25022D763CB77A436A4AC26CE4269D5165B00E7
FILE: 08. Screech.flac
Size: 20619545 Hash: B7F5CA8797BD7002E9260A1C09DD4A00 Accuracy: -m0
Conclusion: CDDA 100%
Signature: 1300A7DA3F40C210527978301D0C6DC61813B2EE
FILE: 07. Terrible Hangdown.flac
Size: 25327982 Hash: 039B5B444E4767AC81D8074BC643CFF3 Accuracy: -m0
Conclusion: CDDA 100%
Signature: BADB77078436B829ADD1A3FCA15E4DA66D6DBFE5
FILE: 06. Intro.flac
Size: 12805575 Hash: 763093888D1C175E2710A291436C7538 Accuracy: -m0
Conclusion: CDDA 100%
Signature: 292646FE553C8E16BA7E1C67CDEC6E6A3226ED49
FILE: 05. Spark A Venge.flac
Size: 34290119 Hash: 029B806ECD2987D7233879136A93F056 Accuracy: -m0
Conclusion: CDDA 100%
Signature: 7697B259D0F7662B3E5A5F3F07B8441F05E7221F
FILE: 04. Career's End.flac
Size: 15496852 Hash: 50D139413D084E213EA40FD6DA799B6E Accuracy: -m0
Conclusion: CDDA 99%
Signature: 25A664A2E9C03CA430CC17F15920C9784E7D8612
FILE: 03. Concrete-Noise-Nothing.flac
Size: 23481167 Hash: 7E9D2F7188A042B88B1EE541B3049185 Accuracy: -m0
Conclusion: CDDA 100%
Signature: EFEB3929BE7FD73146AB55BEAE13FE8F2438093F
FILE: 02. Josef Reiserer's Dead.flac
Size: 21476586 Hash: 11B981FBEF1B93ACF0CE31AE59931286 Accuracy: -m0
Conclusion: CDDA 99%
Signature: 752FAB5914F119C738911997BA60FAF2B4E5C051
FILE: 01. Workout.flac
Size: 12209608 Hash: 4E69E1CE1FF82F06981AA904FC2482CF Accuracy: -m0
Conclusion: CDDA 100%
Signature: 51EF58B50159602988AB0A4B2609C91A69393718

Cassette
ASCAM 112RmkII
Soundblaster Audigy 2 ZS
Steinberg Wavelab (96KHz / 24-bit)

Alterations:
Tracks split
Tape hiss reduced
Normalized to 0dB
Downsampled to 44.1KHz / 16-bit Wave
Год выпуска: 1995
Продолжительность: 01:03:13
Треклист:

01. Workout (02:44)
02. Zeichen (04:06)
03. Seduction (Anthro II) (04:08)
04. Gelobnis (03:35)
05. Get Lost (04:23)
06. Bewegung (03:51)
07. Never Forget (02:51)
08. Creed (06:34)
09. Shiftwork (Activist Movement Mix) (05:31)
10. Anthropophobia (Reprise) (01:11)
11. All Systems Collapsed (Ext. Version) (03:28)
12. Agitation (02:56)
13. Concrete Rage (Vinal Version) (04:32)
14. Cighid (Edit) (04:13)
15. The Skunk 2 (09:10)

Exact Audio Copy V0.99 prebeta 4 from 23. January 2008

EAC extraction logfile from 17. September 2008, 9:24

P•A•L / Signum

Used drive : _NEC DVD_RW ND-3550A Adapter: 0 ID: 0

Read mode : Secure
Utilize accurate stream : Yes
Defeat audio cache : Yes
Make use of C2 pointers : No

Read offset correction : 48
Overread into Lead-In and Lead-Out : No
Fill up missing offset samples with silence : Yes
Delete leading and trailing silent blocks : No
Null samples used in CRC calculations : Yes
Used interface : Installed external ASPI interface
Gap handling : Appended to previous track

Used output format : User Defined Encoder
Selected bitrate : 1024 kBit/s
Quality : High
Add ID3 tag : No
Command line compressor : D:\Programs\Tools\_Exact Audio Copy\FLAC\FLAC.EXE
Additional command line options : -8 -V -T "ARTIST=%a" -T "TITLE=%t" -T "ALBUM=%g" -T "DATE=%y" -T "TRACKNUMBER=%n" -T "GENRE=%m" -T "COMMENT=%e" %s -o %d

TOC of the extracted CD

Track | Start | Length | Start sector | End sector
---------------------------------------------------------
1 | 0:00.00 | 2:44.00 | 0 | 12299
2 | 2:44.00 | 4:06.30 | 12300 | 30779
3 | 6:50.30 | 4:08.08 | 30780 | 49387
4 | 10:58.38 | 3:35.37 | 49388 | 65549
5 | 14:34.00 | 4:22.47 | 65550 | 85246
6 | 18:56.47 | 3:51.12 | 85247 | 102583
7 | 22:47.59 | 2:50.58 | 102584 | 115391
8 | 25:38.42 | 6:34.33 | 115392 | 144974
9 | 32:13.00 | 5:31.25 | 144975 | 169824
10 | 37:44.25 | 1:10.42 | 169825 | 175116
11 | 38:54.67 | 3:27.46 | 175117 | 190687
12 | 42:22.38 | 2:55.38 | 190688 | 203850
13 | 45:18.01 | 4:32.24 | 203851 | 224274
14 | 49:50.25 | 4:13.23 | 224275 | 243272
15 | 54:03.48 | 9:10.37 | 243273 | 284559

Track 1

Filename G:\EAC Temporare\01 Workout.wav

Pre-gap length 0:00:02.00

Peak level 94.4 %
Track quality 100.0 %
Test CRC 23474913
Copy CRC 23474913
Cannot be verified as accurate (confidence 2) [1EC13C4E], AccurateRip returned [2A2DD51E]
Copy OK

Track 2

Filename G:\EAC Temporare\02 Zeichen.wav

Pre-gap length 0:00:01.03

Peak level 94.4 %
Track quality 99.9 %
Test CRC B4DDB326
Copy CRC B4DDB326
Cannot be verified as accurate (confidence 2) [BB407ADB], AccurateRip returned [507901A3]
Copy OK

Track 3

Filename G:\EAC Temporare\03 Seduction (Anthro II).wav

Pre-gap length 0:00:01.13

Peak level 94.4 %
Track quality 100.0 %
Test CRC 7CB80798
Copy CRC 7CB80798
Cannot be verified as accurate (confidence 2) [BD743EA8], AccurateRip returned [55B95E10]
Copy OK

Track 4

Filename G:\EAC Temporare\04 Gelobnis.wav

Pre-gap length 0:00:01.18

Peak level 94.4 %
Track quality 99.9 %
Test CRC 923481E2
Copy CRC 923481E2
Cannot be verified as accurate (confidence 2) [ED72B158], AccurateRip returned [519B2D68]
Copy OK

Track 5

Filename G:\EAC Temporare\05 Get Lost.wav

Pre-gap length 0:00:01.23

Peak level 96.6 %
Track quality 100.0 %
Test CRC E2A6EBED
Copy CRC E2A6EBED
Cannot be verified as accurate (confidence 2) [FD6F844E], AccurateRip returned [02F32B46]
Copy OK

Track 6

Filename G:\EAC Temporare\06 Bewegung.wav

Pre-gap length 0:00:01.20

Peak level 89.1 %
Track quality 100.0 %
Test CRC F4ACC80F
Copy CRC F4ACC80F
Cannot be verified as accurate (confidence 2) [D8FE757E], AccurateRip returned [840A09E6]
Copy OK

Track 7

Filename G:\EAC Temporare\07 Never Forget.wav

Pre-gap length 0:00:01.20

Peak level 94.4 %
Track quality 100.0 %
Test CRC 5F8E1B3D
Copy CRC 5F8E1B3D
Cannot be verified as accurate (confidence 2) [9C52A2E3], AccurateRip returned [749F27C3]
Copy OK

Track 8

Filename G:\EAC Temporare\08 Creed.wav

Pre-gap length 0:00:01.21

Peak level 94.4 %
Track quality 100.0 %
Test CRC F6927FBE
Copy CRC F6927FBE
Cannot be verified as accurate (confidence 2) [1108BDDC], AccurateRip returned [881CA64C]
Copy OK

Track 9

Filename G:\EAC Temporare\09 Shiftwork (Activist Movement Mix).wav

Pre-gap length 0:00:01.25

Peak level 94.4 %
Track quality 100.0 %
Test CRC 4F420E01
Copy CRC 4F420E01
Cannot be verified as accurate (confidence 2) [82BC353D], AccurateRip returned [BCB42EED]
Copy OK

Track 10

Filename G:\EAC Temporare\10 Anthropophobia (Reprise).wav

Pre-gap length 0:00:00.35

Peak level 94.4 %
Track quality 100.0 %
Test CRC 648B0516
Copy CRC 648B0516
Cannot be verified as accurate (confidence 2) [B03EB612], AccurateRip returned [6193631A]
Copy OK

Track 11

Filename G:\EAC Temporare\11 All Systems Collapsed (Extended Version).wav

Pre-gap length 0:00:01.23

Peak level 75.0 %
Track quality 100.0 %
Test CRC ED45459F
Copy CRC ED45459F
Cannot be verified as accurate (confidence 2) [87EA3037], AccurateRip returned [68C0CF4F]
Copy OK

Track 12

Filename G:\EAC Temporare\12 Agitation.wav

Pre-gap length 0:00:01.23

Peak level 89.1 %
Track quality 100.0 %
Test CRC 3FE904EA
Copy CRC 3FE904EA
Cannot be verified as accurate (confidence 2) [D2BB73D5], AccurateRip returned [C73D96F5]
Copy OK

Track 13

Filename G:\EAC Temporare\13 Concrete Rage (Vinal Version).wav

Pre-gap length 0:00:00.49

Peak level 84.1 %
Track quality 99.9 %
Test CRC 92A8EF31
Copy CRC 92A8EF31
Cannot be verified as accurate (confidence 2) [656B0208], AccurateRip returned [229F0288]
Copy OK

Track 14

Filename G:\EAC Temporare\14 Cighid (Edit).wav

Pre-gap length 0:00:01.25

Peak level 85.1 %
Track quality 100.0 %
Test CRC 1E4FC7EB
Copy CRC 1E4FC7EB
Cannot be verified as accurate (confidence 2) [1C73D4B4], AccurateRip returned [48F9EABC]
Copy OK

Track 15

Filename G:\EAC Temporare\15 Bonus Track.wav

Pre-gap length 0:00:01.23

Peak level 97.7 %
Track quality 100.0 %
Test CRC C7286477
Copy CRC C7286477
Cannot be verified as accurate (confidence 2) [CEDAB2A5], AccurateRip returned [BAA208EF]
Copy OK

No tracks could be verified as accurate
You may have a different pressing from the one(s) in the database

No errors occurred

End of status report


REM GENRE Rhythmic Noise, Industrial
REM DATE 1995
REM DISCID CF0ED20F
REM COMMENT ExactAudioCopy v0.99pb4
PERFORMER "P•A•L"
TITLE "Signum"
FILE "01 Workout.flac" WAVE
TRACK 01 AUDIO
TITLE "Workout"
INDEX 01 00:00:00
FILE "02 Zeichen.flac" WAVE
TRACK 02 AUDIO
TITLE "Zeichen"
INDEX 00 00:00:00
INDEX 01 00:01:03
FILE "03 Seduction (Anthro II).flac" WAVE
TRACK 03 AUDIO
TITLE "Seduction (Anthro II)"
INDEX 00 00:00:00
INDEX 01 00:01:13
FILE "04 Gelцbnis.flac" WAVE
TRACK 04 AUDIO
TITLE "Gelobnis"
INDEX 00 00:00:00
INDEX 01 00:01:18
FILE "05 Get Lost.flac" WAVE
TRACK 05 AUDIO
TITLE "Get Lost"
INDEX 00 00:00:00
INDEX 01 00:01:23
FILE "06 Bewegung.flac" WAVE
TRACK 06 AUDIO
TITLE "Bewegung"
INDEX 00 00:00:00
INDEX 01 00:01:20
FILE "07 Never Forget.flac" WAVE
TRACK 07 AUDIO
TITLE "Never Forget"
INDEX 00 00:00:00
INDEX 01 00:01:20
FILE "08 Creed.flac" WAVE
TRACK 08 AUDIO
TITLE "Creed"
INDEX 00 00:00:00
INDEX 01 00:01:21
FILE "09 Shiftwork (Activist Movement Mix).flac" WAVE
TRACK 09 AUDIO
TITLE "Shiftwork (Activist Movement Mix)"
INDEX 00 00:00:00
INDEX 01 00:01:25
FILE "10 Anthropophobia (Reprise).flac" WAVE
TRACK 10 AUDIO
TITLE "Anthropophobia (Reprise)"
INDEX 00 00:00:00
INDEX 01 00:00:35
FILE "11 All Systems Collapsed (Extended Version).flac" WAVE
TRACK 11 AUDIO
TITLE "All Systems Collapsed (Extended Version)"
INDEX 00 00:00:00
INDEX 01 00:01:23
FILE "12 Agitation.flac" WAVE
TRACK 12 AUDIO
TITLE "Agitation"
INDEX 00 00:00:00
INDEX 01 00:01:23
FILE "13 Concrete Rage (Vinal Version).flac" WAVE
TRACK 13 AUDIO
TITLE "Concrete Rage (Vinal Version)"
INDEX 00 00:00:00
INDEX 01 00:00:49
FILE "14 Cighid (Edit).flac" WAVE
TRACK 14 AUDIO
TITLE "Cighid (Edit)"
INDEX 00 00:00:00
INDEX 01 00:01:25
FILE "15 Bonus Track.flac" WAVE
TRACK 15 AUDIO
TITLE "Bonus Track"
INDEX 00 00:00:00
INDEX 01 00:01:23

Год выпуска: 1997
Продолжительность: 00:56:49
Треклист:

01. Metrum V1.2 (04:45)
02. Unwanted (07:24)
03. Cyber Junkyard (05:39)
04. T.A.E. (05:30)
05. E-Mass (08:04)
06. Hybcollab 3 (04:04)
07. Germanized Industry (05:57)
08. Whomp That Sucker! (Live) (04:51)
09. Purge (05:41)
10. Wasteland (04:54)

Exact Audio Copy V0.99 prebeta 4 from 23. January 2008

EAC extraction logfile from 18. September 2008, 10:08

P•A•L / m@rix

Used drive : _NEC DVD_RW ND-3550A Adapter: 0 ID: 0

Read mode : Secure
Utilize accurate stream : Yes
Defeat audio cache : Yes
Make use of C2 pointers : No

Read offset correction : 48
Overread into Lead-In and Lead-Out : No
Fill up missing offset samples with silence : Yes
Delete leading and trailing silent blocks : No
Null samples used in CRC calculations : Yes
Used interface : Installed external ASPI interface
Gap handling : Appended to previous track

Used output format : User Defined Encoder
Selected bitrate : 1024 kBit/s
Quality : High
Add ID3 tag : No
Command line compressor : D:\Programs\Tools\_Exact Audio Copy\FLAC\FLAC.EXE
Additional command line options : -8 -V -T "ARTIST=%a" -T "TITLE=%t" -T "ALBUM=%g" -T "DATE=%y" -T "TRACKNUMBER=%n" -T "GENRE=%m" -T "COMMENT=%e" %s -o %d

TOC of the extracted CD

Track | Start | Length | Start sector | End sector
---------------------------------------------------------
1 | 0:00.00 | 4:44.72 | 0 | 21371
2 | 4:44.72 | 7:24.28 | 21372 | 54699
3 | 12:09.25 | 5:38.67 | 54700 | 80116
4 | 17:48.17 | 5:29.73 | 80117 | 104864
5 | 23:18.15 | 8:03.65 | 104865 | 141154
6 | 31:22.05 | 4:04.15 | 141155 | 159469
7 | 35:26.20 | 5:57.25 | 159470 | 186269
8 | 41:23.45 | 4:51.22 | 186270 | 208116
9 | 46:14.67 | 5:41.25 | 208117 | 233716
10 | 51:56.17 | 4:54.10 | 233717 | 255776

Track 1

Filename G:\EAC Temporare\01 Metrum v1.2.wav

Pre-gap length 0:00:02.00

Peak level 100.0 %
Track quality 100.0 %
Test CRC 1C14DB9A
Copy CRC 1C14DB9A
Accurately ripped (confidence 2) [3AE55BF0]
Copy OK

Track 2

Filename G:\EAC Temporare\02 Unwanted.wav

Pre-gap length 0:00:01.62

Peak level 100.0 %
Track quality 100.0 %
Test CRC 96457B0A
Copy CRC 96457B0A
Accurately ripped (confidence 2) [92B59E00]
Copy OK

Track 3

Filename G:\EAC Temporare\03 Cyber Junkyard.wav

Pre-gap length 0:00:01.53

Peak level 100.0 %
Track quality 100.0 %
Test CRC 3CAD9853
Copy CRC 3CAD9853
Accurately ripped (confidence 2) [2B70AF79]
Copy OK

Track 4

Filename G:\EAC Temporare\04 T.A.E..wav

Pre-gap length 0:00:01.32

Peak level 100.0 %
Track quality 100.0 %
Test CRC 17DB8B3E
Copy CRC 17DB8B3E
Accurately ripped (confidence 2) [DE5399CC]
Copy OK

Track 5

Filename G:\EAC Temporare\05 E-Mass.wav

Pre-gap length 0:00:01.40

Peak level 100.0 %
Track quality 100.0 %
Test CRC A257FA0E
Copy CRC A257FA0E
Accurately ripped (confidence 2) [4E92259F]
Copy OK

Track 6

Filename G:\EAC Temporare\06 Hybcollab 3.wav

Pre-gap length 0:00:03.30

Peak level 87.9 %
Track quality 100.0 %
Test CRC 45BC012D
Copy CRC 45BC012D
Accurately ripped (confidence 2) [4F28C3CE]
Copy OK

Track 7

Filename G:\EAC Temporare\07 Germanized Industry.wav

Peak level 100.0 %
Track quality 100.0 %
Test CRC B7F03B9F
Copy CRC B7F03B9F
Accurately ripped (confidence 2) [8FE40F9E]
Copy OK

Track 8

Filename G:\EAC Temporare\08 Whomp That Sucker! (Live).wav

Pre-gap length 0:00:01.35

Peak level 100.0 %
Track quality 100.0 %
Test CRC 89F719FE
Copy CRC 89F719FE
Accurately ripped (confidence 2) [20221678]
Copy OK

Track 9

Filename G:\EAC Temporare\09 Purge.wav

Pre-gap length 0:00:02.25

Peak level 100.0 %
Track quality 100.0 %
Test CRC C166C429
Copy CRC C166C429
Accurately ripped (confidence 2) [DB95810A]
Copy OK

Track 10

Filename G:\EAC Temporare\10 Wasteland.wav

Pre-gap length 0:00:03.62

Peak level 97.7 %
Track quality 100.0 %
Test CRC 3CA96C2F
Copy CRC 3CA96C2F
Accurately ripped (confidence 2) [0C82A2B9]
Copy OK

All tracks accurately ripped

No errors occurred

End of status report


REM GENRE Industrial, Noise
REM DATE 1997
REM DISCID 820D520A
REM COMMENT ExactAudioCopy v0.99pb4
PERFORMER "P•A•L"
TITLE "m@rix"
FILE "01 Metrum v1.2.flac" WAVE
TRACK 01 AUDIO
TITLE "Metrum v1.2"
INDEX 01 00:00:00
FILE "02 Unwanted.flac" WAVE
TRACK 02 AUDIO
TITLE "Unwanted"
INDEX 00 00:00:00
INDEX 01 00:01:62
FILE "03 Cyber Junkyard.flac" WAVE
TRACK 03 AUDIO
TITLE "Cyber Junkyard"
INDEX 00 00:00:00
INDEX 01 00:01:53
FILE "04 T.A.E..flac" WAVE
TRACK 04 AUDIO
TITLE "T.A.E."
INDEX 00 00:00:00
INDEX 01 00:01:32
FILE "05 E-Mass.flac" WAVE
TRACK 05 AUDIO
TITLE "E-Mass"
INDEX 00 00:00:00
INDEX 01 00:01:40
FILE "06 Hybcollab 3.flac" WAVE
TRACK 06 AUDIO
TITLE "Hybcollab 3"
INDEX 00 00:00:00
INDEX 01 00:03:30
FILE "07 Germanized Industry.flac" WAVE
TRACK 07 AUDIO
TITLE "Germanized Industry"
INDEX 01 00:00:00
FILE "08 Whomp That Sucker! (Live).flac" WAVE
TRACK 08 AUDIO
TITLE "Whomp That Sucker! (Live)"
INDEX 00 00:00:00
INDEX 01 00:01:35
FILE "09 Purge.flac" WAVE
TRACK 09 AUDIO
TITLE "Purge"
INDEX 00 00:00:00
INDEX 01 00:02:25
FILE "10 Wasteland.flac" WAVE
TRACK 10 AUDIO
TITLE "Wasteland"
INDEX 00 00:00:00
INDEX 01 00:03:62

Год выпуска: 1998
Продолжительность: 00:35:14
Треклист:

01. Megadrive (04:02)
02. Amok-Koma (03:59)
03. Into The Tunnel (04:05)
04. Germanized Industry [Remix By Beefcake] (04:02)
05. T.A.E. [Remix By Kybernaut] (03:58)
06. Metrum [Remix By Imminent Starvation] (05:23)
07. Cyber Junkyard [Remix By Synapscape] (04:53)
08. T.A.E [Remix By Ultra Instinct] (04:52)

-----------------------

DON'T MODIFY THIS FILE

-----------------------

PERFORMER: auCDtect Task Manager, ver. 1.6.0 RC1 build 1.6.0.1
Copyright (c) 2008-2010 y-soft. All rights reserved
http://y-soft.org

ANALYZER: auCDtect: CD records authenticity detector, version 0.8.2
Copyright (c) 2004 Oleg Berngardt. All rights reserved.
Copyright (c) 2004 Alexander Djourik. All rights reserved.

FILE: 08. T.A.E [Remix By Ultra Instinct].flac
Size: 37159221 Hash: 669700D2DAE426DABE2B3372E2AAF0CA Accuracy: -m0
Conclusion: CDDA 43%
Signature: D337B9182456F20691BDB376832FE9B5036460BD
FILE: 07. Cyber Junkyard [Remix By Synapscape].flac
Size: 38354687 Hash: 3D79D939BD5299FE96941F5B6032FD1D Accuracy: -m0
Conclusion: CDDA 100%
Signature: 283D6DBC2EA53EC9825A4A4973A934711DE49A1C
FILE: 06. Metrum [Remix By Imminent Starvation].flac
Size: 37408281 Hash: 8DF0DC1A40F3BA21818D0F5D9A34D2E8 Accuracy: -m0
Conclusion: CDDA 100%
Signature: A12C01C00704780072829BD416270FBBA9D290D0
FILE: 05. T.A.E. [Remix By Kybernaut].flac
Size: 27379127 Hash: E817383440314B6A16F9FC3CE27F6594 Accuracy: -m0
Conclusion: CDDA 99%
Signature: 85183433CBC1C1E46A3CF0B32AD83791BE6DC78C
FILE: 04. Germanized Industry [Remix By Beefcake].flac
Size: 30120242 Hash: 2CC649653EFEAD046FB1CD3C8621B260 Accuracy: -m0
Conclusion: CDDA 100%
Signature: 4B9C802E01E3A5168CD990CAE1CAD76D0040EA4A
FILE: 03. Into The Tunnel.flac
Size: 30955746 Hash: 4FEC40AC3CDA2135258E2C61A9E27A54 Accuracy: -m0
Conclusion: CDDA 100%
Signature: ED727A79B7F33C90348BEB6BC33E27E53975532E
FILE: 02. Amok-Koma.flac
Size: 30418344 Hash: DE65F955260032B1C4BB509F5DE4FA67 Accuracy: -m0
Conclusion: CDDA 54%
Signature: 597523B41AF7961C870A0A64B4949AC099C00E27
FILE: 01. Megadrive.flac
Size: 29008580 Hash: 685F972F1C17E486FAD01E0B25C58860 Accuracy: -m0
Conclusion: MPEG 89%
Signature: C8B84378C84D6DA5F40887F9FB9FE364411839D3

Год выпуска: 1999
Продолжительность: 00:51:22+00:20:19
Треклист:

CD1 P·A·L
01. Intro/Talking To A Stranger (01:50)
02. Discoroad (04:43)
03. Crash The Party (06:32)
04. Death Is A Drum Machine (04:10)
05. Welcome To Annexia (05:30)
06. Bang Your Box (04:59)
07. In The Now (04:35)
08. Move! (05:39)
09. Reborn (04:59)
10. Leeste, Night (08:25)

CD2 Synapscape
01. Re-launcher (P·A·L Remix) (04:49)
02. Trapezo Id (P·A·L Remix) (04:30)
03. Distortion Of Passion (P·A·L Remix) (05:50)
04. Nervous Breakdown (P·A·L Remix) (05:10)

Exact Audio Copy V1.3 from 2. September 2016

EAC extraction logfile from 30. January 2019, 23:48

P·A·L / Release

Used drive : TEAC DV-W524GSC Adapter: 1 ID: 0

Read mode : Secure
Utilize accurate stream : Yes
Defeat audio cache : Yes
Make use of C2 pointers : No

Read offset correction : 6
Overread into Lead-In and Lead-Out : No
Fill up missing offset samples with silence : Yes
Delete leading and trailing silent blocks : No
Null samples used in CRC calculations : Yes
Used interface : Native Win32 interface for Win NT & 2000
Gap handling : Appended to previous track

Used output format : User Defined Encoder
Selected bitrate : 1024 kBit/s
Quality : High
Add ID3 tag : No
Command line compressor : C:\Audio\FLAC\flac.exe
Additional command line options : -8 -e -p -V -T "ARTIST=%artist%" -T "TITLE=%title%" -T "ALBUM=%albumtitle%" -T "DATE=%year%" -T "TRACKNUMBER=%tracknr2%" -T "GENRE=%genre%" -T "PERFORMER=%albuminterpret%" -T "COMPOSER=%composer%" -T "ALBUMARTIST=%albumartist%" -T "TOTALTRACKS=%numtracks%" %source% -o %dest%

TOC of the extracted CD

Track | Start | Length | Start sector | End sector
---------------------------------------------------------
1 | 0:00.00 | 1:49.42 | 0 | 8216
2 | 1:49.42 | 4:42.71 | 8217 | 29437
3 | 6:32.38 | 6:31.51 | 29438 | 58813
4 | 13:04.14 | 4:09.44 | 58814 | 77532
5 | 17:13.58 | 5:29.71 | 77533 | 102278
6 | 22:43.54 | 4:58.69 | 102279 | 124697
7 | 27:42.48 | 4:34.71 | 124698 | 145318
8 | 32:17.44 | 5:38.57 | 145319 | 170725
9 | 37:56.26 | 4:59.02 | 170726 | 193152
10 | 42:55.28 | 8:25.17 | 193153 | 231044

Track 1

Filename Q:\rip\P·A·L - Release (1999)\01 P·A·L - Intro,Talking To A Stranger.wav

Pre-gap length 0:00:02.00

Peak level 96.5 %
Extraction speed 3.2 X
Track quality 99.9 %
Test CRC 316E6C41
Copy CRC 316E6C41
Accurately ripped (confidence 11) [948BAD8C] (AR v2)
Copy OK

Track 2

Filename Q:\rip\P·A·L - Release (1999)\02 P·A·L - Discoroad.wav

Pre-gap length 0:00:02.00

Peak level 96.5 %
Extraction speed 5.4 X
Track quality 100.0 %
Test CRC 9792592D
Copy CRC 9792592D
Accurately ripped (confidence 11) [F14CFE13] (AR v2)
Copy OK

Track 3

Filename Q:\rip\P·A·L - Release (1999)\03 P·A·L - Crash The Party.wav

Pre-gap length 0:00:02.00

Peak level 96.5 %
Extraction speed 6.3 X
Track quality 100.0 %
Test CRC 8315DC15
Copy CRC 8315DC15
Accurately ripped (confidence 11) [4C3671B5] (AR v2)
Copy OK

Track 4

Filename Q:\rip\P·A·L - Release (1999)\04 P·A·L - Death Is A Drum Machine.wav

Pre-gap length 0:00:02.01

Peak level 80.7 %
Extraction speed 6.9 X
Track quality 100.0 %
Test CRC C552156E
Copy CRC C552156E
Accurately ripped (confidence 11) [3AF8D34B] (AR v2)
Copy OK

Track 5

Filename Q:\rip\P·A·L - Release (1999)\05 P·A·L - Welcome To Annexia.wav

Pre-gap length 0:00:02.00

Peak level 87.1 %
Extraction speed 7.4 X
Track quality 100.0 %
Test CRC B5A38A4D
Copy CRC B5A38A4D
Accurately ripped (confidence 11) [CE9A1716] (AR v2)
Copy OK

Track 6

Filename Q:\rip\P·A·L - Release (1999)\06 P·A·L - Bang Your Box.wav

Pre-gap length 0:00:02.00

Peak level 76.0 %
Extraction speed 8.1 X
Track quality 100.0 %
Test CRC F70E7CC6
Copy CRC F70E7CC6
Accurately ripped (confidence 11) [480DFD41] (AR v2)
Copy OK

Track 7

Filename Q:\rip\P·A·L - Release (1999)\07 P·A·L - In The Now.wav

Pre-gap length 0:00:02.01

Peak level 96.5 %
Extraction speed 8.4 X
Track quality 100.0 %
Test CRC 9E3CFD54
Copy CRC 9E3CFD54
Accurately ripped (confidence 11) [31A6D7BC] (AR v2)
Copy OK

Track 8

Filename Q:\rip\P·A·L - Release (1999)\08 P·A·L - Move!.wav

Pre-gap length 0:00:02.00

Peak level 74.5 %
Extraction speed 8.9 X
Track quality 100.0 %
Test CRC D2C744AE
Copy CRC D2C744AE
Accurately ripped (confidence 11) [1CECA00C] (AR v2)
Copy OK

Track 9

Filename Q:\rip\P·A·L - Release (1999)\09 P·A·L - Reborn.wav

Pre-gap length 0:00:02.01

Peak level 83.5 %
Extraction speed 9.4 X
Track quality 100.0 %
Test CRC 1625530B
Copy CRC 1625530B
Accurately ripped (confidence 11) [E9CB7E8C] (AR v2)
Copy OK

Track 10

Filename Q:\rip\P·A·L - Release (1999)\10 P·A·L - Leeste, Night.wav

Pre-gap length 0:00:02.00

Peak level 83.9 %
Extraction speed 9.9 X
Track quality 100.0 %
Test CRC BA2B3295
Copy CRC BA2B3295
Accurately ripped (confidence 11) [FC11968C] (AR v2)
Copy OK

All tracks accurately ripped

No errors occurred

End of status report

---- CUETools DB Plugin V2.1.6

[CTDB TOCID: OZ7Ss9LQ0oqxX8c_xVBoM5Gv.NA-] found
Submit result: OZ7Ss9LQ0oqxX8c_xVBoM5Gv.NA- has been confirmed
Track | CTDB Status
1 | (23/23) Accurately ripped
2 | (23/23) Accurately ripped
3 | (23/23) Accurately ripped
4 | (23/23) Accurately ripped
5 | (23/23) Accurately ripped
6 | (23/23) Accurately ripped
7 | (23/23) Accurately ripped
8 | (23/23) Accurately ripped
9 | (23/23) Accurately ripped
10 | (23/23) Accurately ripped

==== Log checksum 3D9F8BF280BE55282C720BB2CBFB9400C8B6EAE7F87574A9032630AB8BF45D24 ====
-------------------------------------------------------------------------------------------------------------------------------------------------------

Exact Audio Copy V1.3 from 2. September 2016

EAC extraction logfile from 31. January 2019, 0:08

P·A·L / Release

Used drive : TEAC DV-W524GSC Adapter: 1 ID: 0

Read mode : Secure
Utilize accurate stream : Yes
Defeat audio cache : Yes
Make use of C2 pointers : No

Read offset correction : 6
Overread into Lead-In and Lead-Out : No
Fill up missing offset samples with silence : Yes
Delete leading and trailing silent blocks : No
Null samples used in CRC calculations : Yes
Used interface : Native Win32 interface for Win NT & 2000
Gap handling : Appended to previous track

Used output format : User Defined Encoder
Selected bitrate : 1024 kBit/s
Quality : High
Add ID3 tag : No
Command line compressor : C:\Audio\FLAC\flac.exe
Additional command line options : -8 -e -p -V -T "ARTIST=%artist%" -T "TITLE=%title%" -T "ALBUM=%albumtitle%" -T "DATE=%year%" -T "TRACKNUMBER=%tracknr2%" -T "GENRE=%genre%" -T "PERFORMER=%albuminterpret%" -T "COMPOSER=%composer%" -T "ALBUMARTIST=%albumartist%" -T "TOTALTRACKS=%numtracks%" %source% -o %dest%

TOC of the extracted CD

Track | Start | Length | Start sector | End sector
---------------------------------------------------------
1 | 0:00.00 | 4:48.40 | 0 | 21639
2 | 4:48.40 | 4:29.57 | 21640 | 41871
3 | 9:18.22 | 5:49.39 | 41872 | 68085
4 | 15:07.61 | 5:10.12 | 68086 | 91347

Track 1

Filename Q:\rip\P·A·L - Release (1999)\01 Synapscape - Re-Launcher (P·A·L Remix).wav

Pre-gap length 0:00:02.00

Peak level 85.1 %
Extraction speed 3.0 X
Track quality 100.0 %
Test CRC 52939EDC
Copy CRC 52939EDC
Accurately ripped (confidence 3) [FF56F145] (AR v2)
Copy OK

Track 2

Filename Q:\rip\P·A·L - Release (1999)\02 Synapscape - Trapezo ID (P·A·L Remix).wav

Pre-gap length 0:00:02.00

Peak level 96.5 %
Extraction speed 3.3 X
Track quality 100.0 %
Test CRC 8416FC73
Copy CRC 8416FC73
Accurately ripped (confidence 3) [81184F01] (AR v2)
Copy OK

Track 3

Filename Q:\rip\P·A·L - Release (1999)\03 Synapscape - Distortion Of Passion (P·A·L Remix).wav

Pre-gap length 0:00:02.00

Peak level 96.5 %
Extraction speed 3.7 X
Track quality 100.0 %
Test CRC E3174B55
Copy CRC E3174B55
Accurately ripped (confidence 3) [F402B9C7] (AR v2)
Copy OK

Track 4

Filename Q:\rip\P·A·L - Release (1999)\04 Synapscape - Nervous Breakdown (P·A·L Remix).wav

Pre-gap length 0:00:02.01

Peak level 88.3 %
Extraction speed 3.9 X
Track quality 100.0 %
Test CRC 972BCC2E
Copy CRC 972BCC2E
Accurately ripped (confidence 3) [9D679FCE] (AR v2)
Copy OK

All tracks accurately ripped

No errors occurred

End of status report

---- CUETools DB Plugin V2.1.6

[CTDB TOCID: 6zY4IrrzufQqLILi_5CWG0g7_IY-] found
Submit result: 6zY4IrrzufQqLILi_5CWG0g7_IY- has been confirmed
Track | CTDB Status
1 | (6/6) Accurately ripped
2 | (6/6) Accurately ripped
3 | (6/6) Accurately ripped
4 | (6/6) Accurately ripped

==== Log checksum 1157847449DB997879471EC0728A0B562E6F90FDBCA3BBED2E0E4FB6D1E1C221 ====


REM DATE 1999
REM DISCID 910C080A
REM COMMENT "ExactAudioCopy v1.3"
PERFORMER "P·A·L"
TITLE "Release"
REM COMPOSER ""
FILE "01 P·A·L - Intro,Talking To A Stranger.wav" WAVE
TRACK 01 AUDIO
TITLE "Intro/Talking To A Stranger"
PERFORMER "P·A·L"
REM COMPOSER ""
INDEX 01 00:00:00
TRACK 02 AUDIO
TITLE "Discoroad"
PERFORMER "P·A·L"
REM COMPOSER ""
INDEX 00 01:47:42
FILE "02 P·A·L - Discoroad.wav" WAVE
INDEX 01 00:00:00
TRACK 03 AUDIO
TITLE "Crash The Party"
PERFORMER "P·A·L"
REM COMPOSER ""
INDEX 00 04:40:71
FILE "03 P·A·L - Crash The Party.wav" WAVE
INDEX 01 00:00:00
TRACK 04 AUDIO
TITLE "Death Is A Drum Machine"
PERFORMER "P·A·L"
REM COMPOSER ""
INDEX 00 06:29:50
FILE "04 P·A·L - Death Is A Drum Machine.wav" WAVE
INDEX 01 00:00:00
TRACK 05 AUDIO
TITLE "Welcome To Annexia"
PERFORMER "P·A·L"
REM COMPOSER ""
INDEX 00 04:07:44
FILE "05 P·A·L - Welcome To Annexia.wav" WAVE
INDEX 01 00:00:00
TRACK 06 AUDIO
TITLE "Bang Your Box"
PERFORMER "P·A·L"
REM COMPOSER ""
INDEX 00 05:27:71
FILE "06 P·A·L - Bang Your Box.wav" WAVE
INDEX 01 00:00:00
TRACK 07 AUDIO
TITLE "In The Now"
PERFORMER "P·A·L"
REM COMPOSER ""
INDEX 00 04:56:68
FILE "07 P·A·L - In The Now.wav" WAVE
INDEX 01 00:00:00
TRACK 08 AUDIO
TITLE "Move!"
PERFORMER "P·A·L"
REM COMPOSER ""
INDEX 00 04:32:71
FILE "08 P·A·L - Move!.wav" WAVE
INDEX 01 00:00:00
TRACK 09 AUDIO
TITLE "Reborn"
PERFORMER "P·A·L"
REM COMPOSER ""
INDEX 00 05:36:56
FILE "09 P·A·L - Reborn.wav" WAVE
INDEX 01 00:00:00
TRACK 10 AUDIO
TITLE "Leeste, Night"
PERFORMER "P·A·L"
REM COMPOSER ""
INDEX 00 04:57:02
FILE "10 P·A·L - Leeste, Night.wav" WAVE
INDEX 01 00:00:00
------------------------------------------------

REM DATE 1999
REM DISCID 2A04C104
REM COMMENT "ExactAudioCopy v1.3"
CATALOG 0000000000000
PERFORMER "P·A·L"
TITLE "Release"
REM COMPOSER ""
FILE "01 Synapscape - Re-Launcher (P·A·L Remix).wav" WAVE
TRACK 01 AUDIO
TITLE "Re-Launcher (P·A·L Remix)"
PERFORMER "Synapscape"
REM COMPOSER ""
INDEX 01 00:00:00
TRACK 02 AUDIO
TITLE "Trapezo ID (P·A·L Remix)"
PERFORMER "Synapscape"
REM COMPOSER ""
INDEX 00 04:46:40
FILE "02 Synapscape - Trapezo ID (P·A·L Remix).wav" WAVE
INDEX 01 00:00:00
TRACK 03 AUDIO
TITLE "Distortion Of Passion (P·A·L Remix)"
PERFORMER "Synapscape"
REM COMPOSER ""
INDEX 00 04:27:57
FILE "03 Synapscape - Distortion Of Passion (P·A·L Remix).wav" WAVE
INDEX 01 00:00:00
TRACK 04 AUDIO
TITLE "Nervous Breakdown (P·A·L Remix)"
PERFORMER "Synapscape"
REM COMPOSER ""
INDEX 00 05:47:38
FILE "04 Synapscape - Nervous Breakdown (P·A·L Remix).wav" WAVE
INDEX 01 00:00:00

Год выпуска: 2002
Продолжительность: 00:41:15
Треклист:

01. In The Now (04:19)
02. Heiden Heiland (04:25)
03. Creed (06:34)
04. Freising 0801 (06:14)
05. Shipwrecked (06:59)
06. Severity (04:26)
07. 14-97 (04:58)
08. Sublimited (03:20)
Год выпуска: 2006
Продолжительность: 00:52:04
Треклист:

01. Intro / Billy Cross (00:46)
02. Agentenfister (03:42)
03. Overlap (05:35)
04. Jobs (03:31)
05. DL7VDX V2.0 (05:11)
06. Flood (03:36)
07. Delusion (08:39)
08. Playtime (03:59)
09. Artist (06:51)
10. Ritus (02:33)
11. Gone (04:13)
12. Do Nothing (03:28)

Exact Audio Copy V0.99 prebeta 3 from 28. July 2007

EAC extraction logfile from 5. December 2007, 2:26

P.A.L / Modus

Used drive : TSSTcorpCDDVDW SH-S203B Adapter: 2 ID: 2

Read mode : Secure
Utilize accurate stream : Yes
Defeat audio cache : No
Make use of C2 pointers : No

Read offset correction : 6
Overread into Lead-In and Lead-Out : No
Fill up missing offset samples with silence : Yes
Delete leading and trailing silent blocks : No
Null samples used in CRC calculations : Yes
Used interface : Native Win32 interface for Win NT & 2000
Gap handling : Appended to previous track

Used output format : User Defined Encoder
Selected bitrate : 128 kBit/s
Quality : High
Add ID3 tag : No
Command line compressor : C:\Program Files\Exact Audio Copy\bin\flac.exe
Additional command line options : -8 -A tukey(0.25) -A gauss(0.1875) -b 4096 -V -T "artist=%a" -T "title=%t" -T "album=%g" -T "date=%y" -T "tracknumber=%n" -T "genre=%m" %s --sector-align

TOC of the extracted CD

Track | Start | Length | Start sector | End sector
---------------------------------------------------------
1 | 0:00.00 | 0:45.44 | 0 | 3418
2 | 0:45.44 | 3:42.26 | 3419 | 20094
3 | 4:27.70 | 5:35.13 | 20095 | 45232
4 | 10:03.08 | 3:31.22 | 45233 | 61079
5 | 13:34.30 | 5:11.19 | 61080 | 84423
6 | 18:45.49 | 3:35.59 | 84424 | 100607
7 | 22:21.33 | 8:39.18 | 100608 | 139550
8 | 31:00.51 | 3:58.53 | 139551 | 157453
9 | 34:59.29 | 6:51.23 | 157454 | 188301
10 | 41:50.52 | 2:33.16 | 188302 | 199792
11 | 44:23.68 | 4:12.68 | 199793 | 218760
12 | 48:36.61 | 3:28.12 | 218761 | 234372

Track 1

Filename C:\Unsorted\(0000--Uploads\P.A.L - Modus (2006)\01 - P.A.L - Intro , Billy Cross.wav

Pre-gap length 0:00:02.00

Peak level 64.2 %
Track quality 100.0 %
Test CRC 43951B2A
Copy CRC 43951B2A
Copy OK

Track 2

Filename C:\Unsorted\(0000--Uploads\P.A.L - Modus (2006)\02 - P.A.L - Agentenfister.wav

Peak level 96.6 %
Track quality 100.0 %
Test CRC 2133C1F6
Copy CRC 2133C1F6
Copy OK

Track 3

Filename C:\Unsorted\(0000--Uploads\P.A.L - Modus (2006)\03 - P.A.L - Overlap.wav

Peak level 96.6 %
Track quality 100.0 %
Test CRC F9C564ED
Copy CRC F9C564ED
Copy OK

Track 4

Filename C:\Unsorted\(0000--Uploads\P.A.L - Modus (2006)\04 - P.A.L - Jobs.wav

Peak level 86.1 %
Track quality 100.0 %
Test CRC 053A3684
Copy CRC 053A3684
Copy OK

Track 5

Filename C:\Unsorted\(0000--Uploads\P.A.L - Modus (2006)\05 - P.A.L - DL7VDX V2.0.wav

Peak level 96.6 %
Track quality 100.0 %
Test CRC EA6A067A
Copy CRC EA6A067A
Copy OK

Track 6

Filename C:\Unsorted\(0000--Uploads\P.A.L - Modus (2006)\06 - P.A.L - Flood.wav

Peak level 96.6 %
Track quality 100.0 %
Test CRC 224E0CCC
Copy CRC 224E0CCC
Copy OK

Track 7

Filename C:\Unsorted\(0000--Uploads\P.A.L - Modus (2006)\07 - P.A.L - Delusion.wav

Peak level 90.6 %
Track quality 100.0 %
Test CRC 0441576C
Copy CRC 0441576C
Copy OK

Track 8

Filename C:\Unsorted\(0000--Uploads\P.A.L - Modus (2006)\08 - P.A.L - Platime.wav

Peak level 96.6 %
Track quality 100.0 %
Test CRC CF0A4155
Copy CRC CF0A4155
Copy OK

Track 9

Filename C:\Unsorted\(0000--Uploads\P.A.L - Modus (2006)\09 - P.A.L - Artist.wav

Peak level 81.1 %
Track quality 100.0 %
Test CRC C1136BBD
Copy CRC C1136BBD
Copy OK

Track 10

Filename C:\Unsorted\(0000--Uploads\P.A.L - Modus (2006)\10 - P.A.L - Ritus.wav

Peak level 96.6 %
Track quality 100.0 %
Test CRC D9D7FB74
Copy CRC D9D7FB74
Copy OK

Track 11

Filename C:\Unsorted\(0000--Uploads\P.A.L - Modus (2006)\11 - P.A.L - Gone.wav

Peak level 96.6 %
Track quality 100.0 %
Test CRC 488D7828
Copy CRC 488D7828
Copy OK

Track 12

Filename C:\Unsorted\(0000--Uploads\P.A.L - Modus (2006)\12 - P.A.L - Do Nothing.wav

Peak level 88.0 %
Track quality 100.0 %
Test CRC 7AC2AEE3
Copy CRC 7AC2AEE3
Copy OK

No errors occurred

End of status report


REM GENRE Industrial
REM DATE 2006
REM DISCID 940C340C
REM COMMENT "ExactAudioCopy v0.99pb3"
PERFORMER "P.A.L"
TITLE "Modus"
FILE "01 - P.A.L - Intro , Billy Cross.flac" WAVE
TRACK 01 AUDIO
TITLE "Intro / Billy Cross"
PERFORMER "P.A.L"
INDEX 01 00:00:00
FILE "02 - P.A.L - Agentenfister.flac" WAVE
TRACK 02 AUDIO
TITLE "Agentenfister"
PERFORMER "P.A.L"
INDEX 01 00:00:00
FILE "03 - P.A.L - Overlap.flac" WAVE
TRACK 03 AUDIO
TITLE "Overlap"
PERFORMER "P.A.L"
INDEX 01 00:00:00
FILE "04 - P.A.L - Jobs.flac" WAVE
TRACK 04 AUDIO
TITLE "Jobs"
PERFORMER "P.A.L"
INDEX 01 00:00:00
FILE "05 - P.A.L - DL7VDX V2.0.flac" WAVE
TRACK 05 AUDIO
TITLE "DL7VDX V2.0"
PERFORMER "P.A.L"
INDEX 01 00:00:00
FILE "06 - P.A.L - Flood.flac" WAVE
TRACK 06 AUDIO
TITLE "Flood"
PERFORMER "P.A.L"
INDEX 01 00:00:00
FILE "07 - P.A.L - Delusion.flac" WAVE
TRACK 07 AUDIO
TITLE "Delusion"
PERFORMER "P.A.L"
INDEX 01 00:00:00
FILE "08 - P.A.L - Platime.flac" WAVE
TRACK 08 AUDIO
TITLE "Platime"
PERFORMER "P.A.L"
INDEX 01 00:00:00
FILE "09 - P.A.L - Artist.flac" WAVE
TRACK 09 AUDIO
TITLE "Artist"
PERFORMER "P.A.L"
INDEX 01 00:00:00
FILE "10 - P.A.L - Ritus.flac" WAVE
TRACK 10 AUDIO
TITLE "Ritus"
PERFORMER "P.A.L"
INDEX 01 00:00:00
FILE "11 - P.A.L - Gone.flac" WAVE
TRACK 11 AUDIO
TITLE "Gone"
PERFORMER "P.A.L"
INDEX 01 00:00:00
FILE "12 - P.A.L - Do Nothing.flac" WAVE
TRACK 12 AUDIO
TITLE "Do Nothing"
PERFORMER "P.A.L"
INDEX 01 00:00:00

Год выпуска: 2011
Продолжительность: 00:49:15
Треклист:

01. Catching Light (04:56)
02. Deus (26:29)
03. Monkey See (10:26)
04. Past- Stir- All (07:24)

-----------------------

DON'T MODIFY THIS FILE

-----------------------

PERFORMER: auCDtect Task Manager, ver. 1.6.0 RC1 build 1.6.0.1
Copyright (c) 2008-2010 y-soft. All rights reserved
http://y-soft.org

ANALYZER: auCDtect: CD records authenticity detector, version 0.8.2
Copyright (c) 2004 Oleg Berngardt. All rights reserved.
Copyright (c) 2004 Alexander Djourik. All rights reserved.

FILE: 04. Past- Stir- All.flac
Size: 40516211 Hash: BA253B8EB90D18385933AC36EDC12E76 Accuracy: -m0
Conclusion: CDDA 99%
Signature: BF5ACDDA0B1D3DFA8480AB5E5921604785B49A97
FILE: 03. Monkey See.flac
Size: 49818106 Hash: D3943CCA18020BCDAA703992D783A7D7 Accuracy: -m0
Conclusion: CDDA 100%
Signature: 3F0C93C4D748B5E14847E752A9F4FFB65FC6C1E3
FILE: 02. Deus.flac
Size: 146020149 Hash: 2C1EA9EAC3F7B66AC356F2ECCFFAE249 Accuracy: -m0
Conclusion: CDDA 100%
Signature: 783B970D62AF3E915394BAEADCCE6F09D91EB115
FILE: 01. Catching Light.flac
Size: 27099399 Hash: 505C2A6B4C5D09C78B38AA53CD514F01 Accuracy: -m0
Conclusion: CDDA 100%
Signature: B8D7BE081FD35060E6C338D7BB3EFD96EBE09270

Год выпуска: 1996
Продолжительность: 00:19:29
Треклист:

01. Decay (06:19)
02. Reel (03:45)
03. Severity (04:26)
04. Intercourse (04:59)

-----------------------

DON'T MODIFY THIS FILE

-----------------------

PERFORMER: auCDtect Task Manager, ver. 1.6.0 RC1 build 1.6.0.1
Copyright (c) 2008-2010 y-soft. All rights reserved
http://y-soft.org

ANALYZER: auCDtect: CD records authenticity detector, version 0.8.2
Copyright (c) 2004 Oleg Berngardt. All rights reserved.
Copyright (c) 2004 Alexander Djourik. All rights reserved.

FILE: 04. Intercøurse.flac
Size: 38325462 Hash: E06AB29BD07DA10D4D62E196EAEC77C6 Accuracy: -m0
Conclusion: CDDA 100%
Signature: 8F0139257260513F3B7C78E9F8A6C1B82CEA2673
FILE: 03. Severity.flac
Size: 19663120 Hash: 6AC1EA9E752667C6AC82A655F5670BDF Accuracy: -m0
Conclusion: MPEG 100%
Signature: E9C6B7F3C9B586FBF1BB43DC9AF92AF36EE08204
FILE: 02. Reel.flac
Size: 18744247 Hash: 807B141AC95E6D263ED4F5F8A07A196A Accuracy: -m0
Conclusion: MPEG 93%
Signature: 3514E0F4347C23CDAEC16A49FA624A38D67A2F10
FILE: 01. Decay.flac
Size: 43151292 Hash: E82B941FAD23A923C5F1695C60D1A7A4 Accuracy: -m0
Conclusion: CDDA 100%
Signature: A1DCD7D89C918D8EF7331D0069C8BD138B352F1A

Год выпуска: 2009
Продолжительность: 00:42:08
Треклист:

01. The Skunk-1 (05:45)
02. Ketama-1 (06:17)
03. Garam (07:47)
04. Djarum (06:56)
05. Ketama-2 (06:20)
06. The Skunk-2 (09:03)

-----------------------

DON'T MODIFY THIS FILE

-----------------------

PERFORMER: auCDtect Task Manager, ver. 1.6.0 RC1 build 1.6.0.1
Copyright (c) 2008-2010 y-soft. All rights reserved
http://y-soft.org

ANALYZER: auCDtect: CD records authenticity detector, version 0.8.2
Copyright (c) 2004 Oleg Berngardt. All rights reserved.
Copyright (c) 2004 Alexander Djourik. All rights reserved.

FILE: 06. The Skunk-2.flac
Size: 41867457 Hash: 6DE050791563D74CCAC63B6FC17756E7 Accuracy: -m0
Conclusion: CDDA 100%
Signature: D7ABAC56DD685F56571BD879B6F2D1010C4724BB
FILE: 05. Ketama-2.flac
Size: 29861934 Hash: DB5B27AB96E82FFBE5CA60CD1F9174C3 Accuracy: -m0
Conclusion: CDDA 100%
Signature: C2FCC2C93C31939D25B87DD36AC7F81B7B115B28
FILE: 04. Djarum.flac
Size: 35168847 Hash: 26E3F1D2D2046E8FDE924217392113CE Accuracy: -m0
Conclusion: CDDA 100%
Signature: 4CC8CA13BB9FCCC017CCF91B461CD4C67F68725F
FILE: 03. Garam.flac
Size: 35948076 Hash: DAD76E69C3799D64EDB955656E69BBA4 Accuracy: -m0
Conclusion: CDDA 99%
Signature: A160713725CB91BEEEF8DAE8536744D1241A520B
FILE: 02. Ketama-1.flac
Size: 29816892 Hash: 3C9308E17C4B62326409ED7D9F209711 Accuracy: -m0
Conclusion: CDDA 100%
Signature: A1A116F839D280A37AF329CEE6D1175BB5E5224B
FILE: 01. The Skunk-1.flac
Size: 30883897 Hash: 11908467EE22F32AF420E722AC7D00A9 Accuracy: -m0
Conclusion: CDDA 100%
Signature: 772AC896FC13C2742B8870C9D2F0B6AE9279BE83

Год выпуска: 2009
Продолжительность: 00:20:24
Треклист:

01. Good Friday '99 (06:01)
02. P-Head (05:52)
03. Stereoweb (05:08)
04. Sublimited (03:23)

-----------------------

DON'T MODIFY THIS FILE

-----------------------

PERFORMER: auCDtect Task Manager, ver. 1.6.0 RC1 build 1.6.0.1
Copyright (c) 2008-2010 y-soft. All rights reserved
http://y-soft.org

ANALYZER: auCDtect: CD records authenticity detector, version 0.8.2
Copyright (c) 2004 Oleg Berngardt. All rights reserved.
Copyright (c) 2004 Alexander Djourik. All rights reserved.

FILE: 04. Sublimited.flac
Size: 18675596 Hash: 405A7C5CD8BD695FEAC3F3D4DF6113C4 Accuracy: -m0
Conclusion: CDDA 100%
Signature: C7298E4AFD24BD3EAB66AEB45D08771101BEA588
FILE: 03. Stereoweb.flac
Size: 39353953 Hash: 52D917E0889D563B2DF57E361540E90C Accuracy: -m0
Conclusion: CDDA 100%
Signature: DB7BCABECF717D923A91F125CA309A14BE525CD7
FILE: 02. P-Head.flac
Size: 44445209 Hash: E498F82DCA43F37CB275E58E27F5D7D6 Accuracy: -m0
Conclusion: CDDA 100%
Signature: 70841BF52A1106D66AB8A4D78ED29FB1D982428A
FILE: 01. Good Friday '99.flac
Size: 33755809 Hash: ECC1E7F4EC2EEC65346F6BF903B50FB7 Accuracy: -m0
Conclusion: CDDA 100%
Signature: F0DE8A332A7004DFD5041DE106160B92A4F90855

Год выпуска: 2000
Продолжительность: 00:20:19
Треклист:

01. Re-Launcher (04:49)
02. Trapezo Id (04:30)
03. Distortion of Passion (05:50)
04. Nervous Breakdown (05:10)

-----------------------

DON'T MODIFY THIS FILE

-----------------------

PERFORMER: auCDtect Task Manager, ver. 1.6.0 RC1 build 1.6.0.1
Copyright (c) 2008-2010 y-soft. All rights reserved
http://y-soft.org

ANALYZER: auCDtect: CD records authenticity detector, version 0.8.2
Copyright (c) 2004 Oleg Berngardt. All rights reserved.
Copyright (c) 2004 Alexander Djourik. All rights reserved.

FILE: 04. Nervous Breakdown.flac
Size: 42469234 Hash: 7C5B3DADC164026B334882C7EACD28CF Accuracy: -m0
Conclusion: CDDA 100%
Signature: 7B5BFECD6DE8A03F46BE0ADAD557A266D02495D3
FILE: 03. Distortion of Passion.flac
Size: 49321129 Hash: AA2979D0130C66B3ED13BC9203F3D2C9 Accuracy: -m0
Conclusion: CDDA 100%
Signature: FFFD809C16D3B6624B6C0C290BBBAAF3BC565B8E
FILE: 02. Trapezo Id.flac
Size: 34464561 Hash: B3E068B7C09E854AFA366CE94BE5E58A Accuracy: -m0
Conclusion: CDDA 100%
Signature: 77088BE6462CACDF9CFCBFF7E88747480A10DAB5
FILE: 01. Re-Launcher.flac
Size: 35699060 Hash: 54EB4ADEDF0FB53C0985CB49F7EA5714 Accuracy: -m0
Conclusion: CDDA 76%
Signature: CF965306714A4475B043489CD2367CE01C3966D2

Год выпуска: 2004
Продолжительность: 01:19:11
Треклист:

01. Intro+Terrible Hangdown (Instrumental Version) (07:50)
02. I Set My Dog On Fire (04:34)
03. Anthropophobia (03:35)
04. All Systems Collapsed (Original Version) (01:39)
05. Discipline (04:28)
06. Intercourse (05:01)
07. T.A.E. (05:31)
08. Erosion V1.1 (04:08)
09. Gelobnis (Terrorfakt Remix) (05:17)
10. Whomp That Sucker (04:29)
11. Screech (04:06)
12. Wretched (07:13)
13. Wall Of Lashes (02:39)
14. Sacred Women (18:41)

EAC extraction logfile from 25. September 2007, 17:19 for CD
P.A.L / Retro

Used drive : SONY DVD RW DRU-720A Adapter: 3 ID: 0
Read mode : Secure with NO C2, accurate stream, disable cache
Read offset correction : 12
Overread into Lead-In and Lead-Out : No

Used output format : C:\Program Files\FLAC\flac.exe (User Defined Encoder)
192 kBit/s
Additional command line options : -V -8 -T "artist=%a" -T "title=%t" -T "album=%g" -T "date=%y" -T "tracknumber=%n" -T "genre=%m" %s

Other options :
Fill up missing offset samples with silence : Yes
Delete leading and trailing silent blocks : No
Installed external ASPI interface

Track 1
Filename C:\A\P.A.L - Retro [flac]\01 - Intro + Terrible Hangdown (Instrumental version).wav

Peak level 95.5 %
Track quality 100.0 %
Test CRC BB862555
Copy CRC BB862555
Copy OK

Track 2
Filename C:\A\P.A.L - Retro [flac]\02 - I set my Dog on Fire.wav

Peak level 90.1 %
Track quality 100.0 %
Test CRC D481D03B
Copy CRC D481D03B
Copy OK

Track 3
Filename C:\A\P.A.L - Retro [flac]\03 - Anthropophobia.wav

Peak level 95.5 %
Track quality 100.0 %
Test CRC 94588171
Copy CRC 94588171
Copy OK

Track 4
Filename C:\A\P.A.L - Retro [flac]\04 - All Systems Collapsed (Original Version).wav

Peak level 78.5 %
Track quality 100.0 %
Test CRC F647BDF7
Copy CRC F647BDF7
Copy OK

Track 5
Filename C:\A\P.A.L - Retro [flac]\05 - Discipline.wav

Peak level 72.4 %
Track quality 100.0 %
Test CRC 4887A7DA
Copy CRC 4887A7DA
Copy OK

Track 6
Filename C:\A\P.A.L - Retro [flac]\06 - Intercourse.wav

Peak level 66.8 %
Track quality 100.0 %
Test CRC 0EF4E94D
Copy CRC 0EF4E94D
Copy OK

Track 7
Filename C:\A\P.A.L - Retro [flac]\07 - T.A.E..wav

Peak level 95.5 %
Track quality 100.0 %
Test CRC 46464976
Copy CRC 46464976
Copy OK

Track 8
Filename C:\A\P.A.L - Retro [flac]\08 - Erosion V1.1.wav

Peak level 95.5 %
Track quality 100.0 %
Test CRC C1E0D024
Copy CRC C1E0D024
Copy OK

Track 9
Filename C:\A\P.A.L - Retro [flac]\09 - Gelцbnis - Terrorfakt Remix.wav

Peak level 95.5 %
Track quality 100.0 %
Test CRC 9213E6AE
Copy CRC 9213E6AE
Copy OK

Track 10
Filename C:\A\P.A.L - Retro [flac]\10 - Whomp that Sucker.wav

Peak level 75.8 %
Track quality 100.0 %
Test CRC 1771BFCF
Copy CRC 1771BFCF
Copy OK

Track 11
Filename C:\A\P.A.L - Retro [flac]\11 - Screech.wav

Peak level 95.5 %
Track quality 100.0 %
Test CRC D87A22BE
Copy CRC D87A22BE
Copy OK

Track 12
Filename C:\A\P.A.L - Retro [flac]\12 - Wretched.wav

Peak level 95.5 %
Track quality 99.9 %
Test CRC 465F0795
Copy CRC 465F0795
Copy OK

Track 13
Filename C:\A\P.A.L - Retro [flac]\13 - Wall of Lashes.wav

Peak level 83.1 %
Track quality 100.0 %
Test CRC C70EBE8F
Copy CRC C70EBE8F
Copy OK

Track 14
Filename C:\A\P.A.L - Retro [flac]\14 - Sacred Women.wav

Peak level 95.5 %
Track quality 100.0 %
Test CRC 7B6665DB
Copy CRC 7B6665DB
Copy OK

No errors occured

End of status report


REM GENRE Industrial
REM DATE 2004
REM DISCID CB128C0E
REM COMMENT "ExactAudioCopy v0.95b4"
PERFORMER "P.A.L"
TITLE "Retro"
FILE "01 - Intro + Terrible Hangdown (Instrumental version).wav" WAVE
TRACK 01 AUDIO
TITLE "Intro + Terrible Hangdown (Instrumental version)"
PERFORMER "P.A.L"
INDEX 01 00:00:00
TRACK 02 AUDIO
TITLE "I set my Dog on Fire"
PERFORMER "P.A.L"
INDEX 00 07:48:67
FILE "02 - I set my Dog on Fire.wav" WAVE
INDEX 01 00:00:00
TRACK 03 AUDIO
TITLE "Anthropophobia"
PERFORMER "P.A.L"
INDEX 00 04:32:57
FILE "03 - Anthropophobia.wav" WAVE
INDEX 01 00:00:00
TRACK 04 AUDIO
TITLE "All Systems Collapsed (Original Version)"
PERFORMER "P.A.L"
INDEX 00 03:33:51
FILE "04 - All Systems Collapsed (Original Version).wav" WAVE
INDEX 01 00:00:00
TRACK 05 AUDIO
TITLE "Discipline"
PERFORMER "P.A.L"
INDEX 00 01:37:56
FILE "05 - Discipline.wav" WAVE
INDEX 01 00:00:00
TRACK 06 AUDIO
TITLE "Intercourse"
PERFORMER "P.A.L"
INDEX 00 04:26:74
FILE "06 - Intercourse.wav" WAVE
INDEX 01 00:00:00
TRACK 07 AUDIO
TITLE "T.A.E."
PERFORMER "P.A.L"
INDEX 00 04:59:44
FILE "07 - T.A.E..wav" WAVE
INDEX 01 00:00:00
TRACK 08 AUDIO
TITLE "Erosion V1.1"
PERFORMER "P.A.L"
INDEX 00 05:30:22
FILE "08 - Erosion V1.1.wav" WAVE
INDEX 01 00:00:00
TRACK 09 AUDIO
TITLE "Gelцbnis - Terrorfakt Remix"
PERFORMER "P.A.L"
INDEX 00 04:06:43
FILE "09 - Gelцbnis - Terrorfakt Remix.wav" WAVE
INDEX 01 00:00:00
TRACK 10 AUDIO
TITLE "Whomp that Sucker"
PERFORMER "P.A.L"
INDEX 00 05:15:74
FILE "10 - Whomp that Sucker.wav" WAVE
INDEX 01 00:00:00
TRACK 11 AUDIO
TITLE "Screech"
PERFORMER "P.A.L"
INDEX 00 04:27:69
FILE "11 - Screech.wav" WAVE
INDEX 01 00:00:00
TRACK 12 AUDIO
TITLE "Wretched"
PERFORMER "P.A.L"
INDEX 00 04:04:46
FILE "12 - Wretched.wav" WAVE
INDEX 01 00:00:00
TRACK 13 AUDIO
TITLE "Wall of Lashes"
PERFORMER "P.A.L"
INDEX 00 07:12:00
FILE "13 - Wall of Lashes.wav" WAVE
INDEX 01 00:00:00
TRACK 14 AUDIO
TITLE "Sacred Women"
PERFORMER "P.A.L"
INDEX 00 02:37:67
FILE "14 - Sacred Women.wav" WAVE
INDEX 01 00:00:00

Год выпуска: 2008
Продолжительность: 00:52:24
Треклист:

01. Sleepless (06:38)
02. K-Schwarz (04:01)
03. Freising 0801 (06:02)
04. Drumpolice (03:46)
05. Hypnosis (04:41)
06. I.R.K. (05:07)
07. Sin Dub (05:00)
08. R-Forschung (05:21)
09. Versuchung (05:32)
10. Little Cloudy Fluff (06:16)

-----------------------

DON'T MODIFY THIS FILE

-----------------------

PERFORMER: auCDtect Task Manager, ver. 1.6.0 RC1 build 1.6.0.1
Copyright (c) 2008-2010 y-soft. All rights reserved
http://y-soft.org

ANALYZER: auCDtect: CD records authenticity detector, version 0.8.2
Copyright (c) 2004 Oleg Berngardt. All rights reserved.
Copyright (c) 2004 Alexander Djourik. All rights reserved.

FILE: 10. Little Cloudy Fluff.flac
Size: 48276592 Hash: C6DBE0BB607FE6C163D0047EA025E302 Accuracy: -m0
Conclusion: CDDA 100%
Signature: 64C8063418027C8CBB8FA9DA3A31A1A814F236D9
FILE: 09. Versuchung.flac
Size: 34774048 Hash: 6328CD846B06E762ACADD50EBAC96D79 Accuracy: -m0
Conclusion: CDDA 100%
Signature: 0109DDF20B56D2368624E6539D820E241E695C9D
FILE: 08. R-Forschung.flac
Size: 42204031 Hash: 8E4BBAA982E42B661E56ED7A61C022F7 Accuracy: -m0
Conclusion: CDDA 100%
Signature: EBE9BC30DC91EAE68DF3100253215077E7FA3FA4
FILE: 07. Sin Dub.flac
Size: 29046719 Hash: D86651ACBAA95EFB6539F2F4CBABF9D2 Accuracy: -m0
Conclusion: CDDA 100%
Signature: C5ECC8CD26C5063D22236EDAE04A36A7E21AD874
FILE: 06. I.R.K..flac
Size: 40322088 Hash: 51C753F9B6B5AF18425238F9D7F7EFDC Accuracy: -m0
Conclusion: CDDA 100%
Signature: DDAF0C54C8FBD11DFF30029D784B2616E05B9479
FILE: 05. Hypnosis.flac
Size: 31497396 Hash: DF16C688A5A8CB6DBCBDDD2A06F240A1 Accuracy: -m0
Conclusion: CDDA 100%
Signature: F16631AD91A2B381FFF52EA0B2AC2904B1BE19A1
FILE: 04. Drumpolice.flac
Size: 11714249 Hash: 71967BA24DA44B5B5A6964568C151F49 Accuracy: -m0
Conclusion: CDDA 100%
Signature: D76BFACEE59A9FD7C585A890EDF483956603B68C
FILE: 03. Freising 0801.flac
Size: 37219178 Hash: A17B6ECB9D24FA868B65955F77050126 Accuracy: -m0
Conclusion: CDDA 100%
Signature: 390CEE7C5060410A48DBA0D8DE2F0C3B54718B89
FILE: 02. K-Schwarz.flac
Size: 30387126 Hash: 0CB5B8C72F5441AD19B272A3543416D5 Accuracy: -m0
Conclusion: CDDA 100%
Signature: 9952B1196DA802289A53B8C2CA28468E0D7CF4B9
FILE: 01. Sleepless.flac
Size: 46850134 Hash: 6599DE51A22C10A13CE06099F3CCCEF9 Accuracy: -m0
Conclusion: CDDA 100%
Signature: 16D8474EE3FA56E4A69D2D2C14D37CC7C0191F79

Время раздачи: 12/7
[NNM-Club.me]_P·A·L FLAC.torrent
 Торрент: Платиновая раздача  Зарегистрирован
 
Скачать


Примагнититься
 Зарегистрирован:   31 Янв 2019 13:37:55
 Размер:   4,37 GB  (
 Рейтинг:   5 (Голосов: 10)
 Поблагодарили:   63
 Проверка:   Оформление проверено модератором 31 Янв 2019 13:38:33
Как cкачать  ·  Как раздать  ·  Правильно оформить  ·  Поднять ратио!  
Загрузка...
vilator ®
Модератор Музыки
RG Music
 
Стаж: 10 лет 5 мес.
Сообщений: 9433
Ratio: 175,29
Поблагодарили: 191349
100%
Откуда: Minsk
pirates.png
Обновление:

заменил на свежий рип
1999 Release (Special Edition) (CD)
заменил вебку на рип
2002 Live At 2-00 A.M. (CD)
добавил
2008 Archive.Two (WEB)

кто качал ранее, в папке Compilations релизы переименуйте согласно оформлению.
Skrux
Стаж: 5 лет 1 мес.
Сообщений: 30
Ratio: 0,102
100%
russia.gif
СПАСИБО! ТУТ раздача более полная аж 4.37 гб

_________________
челом бьет
alexkozlov2012
Стаж: 4 года 7 мес.
Сообщений: 42
Ratio: 105,252
100%
Skrux писал(а): Перейти к сообщению
СПАСИБО! ТУТ раздача более полная аж 4.37 гб


ТУТ все полнее)
Показать сообщения:   
Начать новую тему   Ответить на тему    Торрент-трекер NNM-Club -> Electronic -> Experimental, Industrial, EBM, Dark Electro (Lossless) Часовой пояс: GMT + 3
Страница 1 из 1