Классический форум-трекер
canvas not supported
Нас вместе: 4 077 806

Питер Клайнс | Преломление (2019) [M4B|AAC]


 
 
RSS
Начать новую тему   Ответить на тему    Торрент-трекер NNM-Club -> Аудио и Видео -> Аудиокниги (AAC)
Автор Сообщение
trybag ®
Стаж: 6 лет 5 мес.
Сообщений: 189
Ratio: 15,221
Поблагодарили: 5879
100%
Питер Клайнс | Преломление
Автор: Питер Клайнс
Год: Михаил Росляков
Жанр: Фантастика
Продолжительность: 16:41:13
Читает: Михаил Росляков
Издательство: Нигде не купишь

Описание: Майк Эриксон – простой учитель в средней школе. По крайней мере таким человеком он хочет казаться, ведь некоторыми способностями превосходит любого преподавателя в мире. Но спокойная жизнь меняется, когда Майку предлагают некую загадку. Речь идет о секретном проекте «Дверь Альбукерке», о первой в мире телепортационной установке. Ее создатели уверяют, что Дверь абсолютно безопасна, и десятки испытаний подтверждают их правоту. Вот только в центре начинают происходить странные инциденты, поначалу незначительные, но затем дела становятся все серьезнее, а ученые ведут себя все подозрительнее. И чем дальше заходит расследование, тем яснее Майк понимает, что эта тайна гораздо страшнее, чем казалось на первый взгляд. Но даже он не знает, с каким ужасом ему придется столкнуться.

Формат: M4B
Аудиокодек: AAC
Битрейт: 96 kbps
Частота: 44,1 KHz
Разбивка на главы: есть
Вшитая обложка: есть
Музыкальное сопровождение: нет

Код: выделить все
Общее
Полное имя                               : Преломление 1.m4b
Формат                                   : MPEG-4
Профиль формата                          : Apple audio with iTunes position
Идентификатор кодека                     : M4B  (M4B /mp42/isom)
Размер файла                             : 296 Мбайт
Продолжительность                        : 8 ч. 11 м.
Режим общего битрейта                    : Переменный
Общий поток                              : 84,2 Кбит/сек
Альбом                                   : Преломление
Альбом/Исполнитель                       : Питер Клайнс
Трек                                     : Преломление 1
Трек/Положение                           : 1
Трек/Всего                               : 2
Исполнитель                              : Питер Клайнс
Композитор                               : Михаил Росляков
Издатель                                 : Нигде не купишь
Жанр                                     : Фантастика
Дата записи                              : 2019
Дата кодирования                         : UTC 2019-06-09 08:15:31
Дата пометки                             : UTC 2019-06-09 09:01:00
Обложка                                  : Yes
art                                      : Питер Клайнс

Аудио
Идентификатор                            : 1
Формат                                   : AAC LC
Формат/Информация                        : Advanced Audio Codec Low Complexity
Идентификатор кодека                     : mp4a-40-2
Продолжительность                        : 8 ч. 11 м.
Вид битрейта                             : Переменный
Битрейт                                  : 82,7 Кбит/сек
Номинальный битрейт                      : 96,0 Кбит/сек
Максимальный битрейт                     : 89,5 Кбит/сек
Каналы                                   : 2 канала
Channel layout                           : L R
Частота                                  : 44,1 КГц
Частота кадров                           : 43,066 кадра/сек (1024 SPF)
Метод сжатия                             : С потерями
Размер потока                            : 291 Мбайт (98%)
Дата кодирования                         : UTC 2019-06-09 08:15:31
Дата пометки                             : UTC 2019-06-09 09:01:00
Menus                                    : 2

Меню
Идентификатор                            : 2
Идентификатор кодека                     : text
Продолжительность                        : 8 ч. 11 м.
Язык                                     : English
Дата кодирования                         : UTC 2019-06-09 12:59:44
Дата пометки                             : UTC 2019-06-09 12:59:44
Menu For                                 : 1
00:00:00.000                             : Аннотация
00:02:01.649                             : Глава 1
00:24:27.779                             : Глава 2
00:43:05.982                             : Глава 3
00:56:56.955                             : Глава 4
01:17:36.134                             : Глава 5
01:39:03.147                             : Глава 6
01:55:31.574                             : Глава 7
02:18:09.500                             : Глава 8
02:32:16.308                             : Глава 9
02:52:16.339                             : Глава 10
03:07:44.394                             : Глава 11
03:18:51.828                             : Глава 12
03:52:30.339                             : Глава 13
04:12:10.725                             : Глава 14
04:29:26.939                             : Глава 15
04:36:04.418                             : Глава 16
04:49:26.761                             : Глава 17
05:11:16.831                             : Глава 18
05:24:55.357                             : Глава 19
05:46:26.015                             : Глава 20
05:55:17.125                             : Глава 21
06:09:05.520                             : Глава 22
06:23:59.930                             : Глава 23
06:46:47.028                             : Глава 24
07:05:20.402                             : Глава 25
07:22:52.730                             : Глава 26
07:34:45.374                             : Глава 27
07:50:45.380                             : Глава 28
08:01:28.387                             : Глава 29
Вид битрейта                             : VBR

Общее
Полное имя                               : Преломление 2.m4b
Формат                                   : MPEG-4
Профиль формата                          : Apple audio with iTunes position
Идентификатор кодека                     : M4B  (M4B /mp42/isom)
Размер файла                             : 307 Мбайт
Продолжительность                        : 8 ч. 30 м.
Режим общего битрейта                    : Переменный
Общий поток                              : 84,1 Кбит/сек
Альбом                                   : Преломление
Альбом/Исполнитель                       : Питер Клайнс
Трек                                     : Преломление 2
Трек/Положение                           : 2
Трек/Всего                               : 2
Исполнитель                              : Питер Клайнс
Композитор                               : Михаил Росляков
Издатель                                 : Нигде не купишь
Жанр                                     : Фантастика
Дата записи                              : 2019
Дата кодирования                         : UTC 2019-06-09 08:35:50
Дата пометки                             : UTC 2019-06-09 09:01:07
Обложка                                  : Yes
art                                      : Питер Клайнс

Аудио
Идентификатор                            : 1
Формат                                   : AAC LC
Формат/Информация                        : Advanced Audio Codec Low Complexity
Идентификатор кодека                     : mp4a-40-2
Продолжительность                        : 8 ч. 30 м.
Продолжительность оригинала              : 8 ч. 30 м.
Вид битрейта                             : Переменный
Битрейт                                  : 82,6 Кбит/сек
Номинальный битрейт                      : 96,0 Кбит/сек
Максимальный битрейт                     : 92,7 Кбит/сек
Каналы                                   : 2 канала
Channel layout                           : L R
Частота                                  : 44,1 КГц
Частота кадров                           : 43,066 кадра/сек (1024 SPF)
Метод сжатия                             : С потерями
Размер потока                            : 301 Мбайт (98%)
Размер потока оригинала                  : 301 Мбайт (98%)
Дата кодирования                         : UTC 2019-06-09 08:35:50
Дата пометки                             : UTC 2019-06-09 09:01:07
Menus                                    : 2

Меню
Идентификатор                            : 2
Идентификатор кодека                     : text
Продолжительность                        : 8 ч. 30 м.
Язык                                     : English
Дата кодирования                         : UTC 2019-06-09 13:00:23
Дата пометки                             : UTC 2019-06-09 13:00:23
Menu For                                 : 1
Продолжительность оригинала              : 30601672
Количество кадров оригинала              : 31
Размер потока оригинала                  : 846
Счётчик кадров                           : 31
Размер потока                            : 846
00:00:00.000                             : Глава 30
00:20:39.667                             : Глава 31
00:31:18.935                             : Глава 32
00:42:44.783                             : Глава 33
00:58:42.490                             : Глава 34
01:12:20.785                             : Глава 35
01:33:29.175                             : Глава 36
01:51:15.040                             : Глава 37
02:05:28.583                             : Глава 38
02:16:58.215                             : Глава 39
02:41:30.221                             : Глава 40
02:59:08.912                             : Глава 41
03:15:55.590                             : Глава 42
03:36:10.179                             : Глава 43
03:59:41.302                             : Глава 44
04:15:24.636                             : Глава 45
04:30:48.860                             : Глава 46
04:54:24.023                             : Глава 47
05:05:29.298                             : Глава 48
05:31:10.546                             : Глава 49
05:42:32.377                             : Глава 50
06:04:10.070                             : Глава 51
06:18:43.373                             : Глава 52
06:34:05.693                             : Глава 53
06:51:11.179                             : Глава 54
07:03:11.834                             : Глава 55
07:18:13.952                             : Глава 56
07:37:50.902                             : Глава 57
07:51:28.198                             : Глава 58
08:13:45.969                             : Глава 59
08:23:13.976                             : Послесловие
Вид битрейта                             : VBR

[NNM-Club.me]_Prelomlenie.torrent
 Торрент: Платиновая раздача  Зарегистрирован
 
Скачать


Примагнититься
 Зарегистрирован:   15 Июн 2019 08:18:21
 Размер:   603 MB  (
 Рейтинг:    (Голосов: 6)
 Поблагодарили:   53
 Проверка:   Оформление проверено модератором 15 Июн 2019 09:09:20
WebMoney кошелек: R662717423455
Как cкачать  ·  Как раздать  ·  Правильно оформить  ·  Поднять ратио!  
Показать сообщения:   
Начать новую тему   Ответить на тему    Торрент-трекер NNM-Club -> Аудио и Видео -> Аудиокниги (AAC) Часовой пояс: GMT + 3
Страница 1 из 1