Классический форум-трекер
canvas not supported
Нас вместе: 4 093 562

Оружие. ПСМ (Пистолет Самозарядный Малогабаритный) (2011) SATRip


 
 
RSS
Начать новую тему   Ответить на тему    Торрент-трекер NNM-Club -> Документалистика и Телепередачи -> Военное дело
Автор Сообщение
svlesin ®
Модератор Документалистики/TV
RG Releasers
Релизер 25000+ Uploader 300+
 
Стаж: 10 лет 2 мес.
Сообщений: 33802
Ratio: 1813,461
Поблагодарили: 3252639
100%
russia.gif
Оружие. ПСМ (Пистолет Самозарядный Малогабаритный) (2011) SATRip
Режиссер / Телекомпания: Оружие

Русское название: Оружие
Год выпуска: 2011
Жанр: Документальный, оружие, вооружение
Выпущено: Телеканал «Оружие», ООО «Феникс-Тверь»

Описание:
Цикл передач с говорящим названием «Оружие» объединил ряд документальных фильмов, рассказывающих об истории создания всемирно известных огнестрелов. В каждом выпуске рассказана история создания того или иного образца оружия и приведены любопытные факты. «Оружие» – это интересная и познавательная программа, проиллюстрированная кадрами исторической хроники и рассказами экспертов.

Режиссёр: Игорь Левин

Продолжительность: ~ 00:25:29

Видеокодек: DviX
Битрейт видео: ~1198 kb/s
Размер кадра: 704 x 400
Качество видео: SATRip
Аудиокодек: MP3, 2ch.
Битрейт аудио: 128 kb/s
Формат : AVI
Формат/Информация : Audio Video Interleave
Размер файла : 244 Мбайт
Продолжительность : 25 м.
Общий поток : 1336 Кбит/сек
Программа кодирования : VirtualDubModRus 1.5.10.2 (build 2542/release)
Библиотека кодирования : VirtualDubMod build 2542/release

Видео
Идентификатор : 0
Формат : MPEG-4 Visual
Профиль формата : Advanced Simple@L5
Параметр BVOP формата : 2
Параметр QPel формата : Нет
Параметр GMC формата : Без точки перехода
Параметр матрицы формата : Default (MPEG)
Идентификатор кодека : DX50
Идентификатор кодека/Подсказка : DivX 5
Продолжительность : 25 м.
Битрейт : 1198 Кбит/сек
Ширина : 704 пикселя
Высота : 400 пикселей
Соотношение сторон : 16:9
Частота кадров : 25,000 кадров/сек
Цветовое пространство : YUV
Субдискретизация насыщенности : 4:2:0
Битовая глубина : 8 бит
Тип развёртки : Прогрессивная
Метод сжатия : С потерями
Бит/(Пиксели*Кадры) : 0.170
Размер потока : 218 Мбайт (90%)
Библиотека кодирования : XviD 73

Аудио
Идентификатор : 1
Формат : MPEG Audio
Версия формата : Version 1
Профиль формата : Layer 3
Идентификатор кодека : 55
Идентификатор кодека/Подсказка : MP3
Продолжительность : 25 м.
Вид битрейта : Постоянный
Битрейт : 128 Кбит/сек
Каналы : 2 канала
Частота : 48,0 КГц
Метод сжатия : С потерями
Размер потока : 23,3 Мбайт (10%)
Выравнивание : Соединение по промежуткам
Продолжительность промежутка : 40 мс. (1,00 видеокадр)
Время предзагрузки промежутка : 504 мс.
Библиотека кодирования : LAME3.99.5
Скриншоты:
Время раздачи: 24/7. До первых 5 скачавших.
Rip by alf62
Оружие на NoNaMe Club
[NNM-Club.me]_Oruzhie. PSM (Pistolet Samozaryadnyiy Malogabaritnyiy) (2011).avi.torrent
 Торрент: Платиновая раздача  Зарегистрирован
 
Скачать


Примагнититься
 Зарегистрирован:   23 Сен 2013 07:53:08
 Размер:   244 MB  (
 Рейтинг:   4,9 (Голосов: 34)
 Поблагодарили:   119
 Проверка:   Оформление проверено модератором 23 Сен 2013 07:54:48
Как cкачать  ·  Как раздать  ·  Правильно оформить  ·  Поднять ратио!  

_________________
Уважаемые пользователи Клуба! От меня релизов больше не будет. Может быть, буду поддерживать «Обновляемые раздачи». Спасибо всем, кто благодарил меня и говорил/нажимал «Спасибо»!
My Own Park
Стаж: 8 лет 10 мес.
Сообщений: 20
Ratio: 54,224
100%
А любишь когда большие?
Показать сообщения:   
Начать новую тему   Ответить на тему    Торрент-трекер NNM-Club -> Документалистика и Телепередачи -> Военное дело Часовой пояс: GMT + 3
Страница 1 из 1