Классический форум-трекер
canvas not supported
Нас вместе: 4 077 946

Баллада о Тарбозавре / Tarbosaurus the Mightiest Ever (2009) HDTV [H.264/1080i] (2 серии из 2)


 
 
RSS
Начать новую тему   Ответить на тему    Торрент-трекер NNM-Club -> Зарубежные TV-бренды -> Доисторический мир
Автор Сообщение
Отец Лоренцо ®
Uploader 1000+, Сталкер
Стаж: 7 лет 8 мес.
Сообщений: 4040
Ratio: 7393,141
Раздал: 1,0172 PB
Поблагодарили: 121771
100%
Откуда: Харьков, Украина
Баллада о Тарбозавре / Tarbosaurus the Mightiest Ever (2009) HDTV [H.264/1080i] (2 серии из 2)
Производство: Корея, EBS, Olive Studio
Жанр: Документальный, доисторический мир

Режиссер: Хан Сангхо

Описание:
В дикой природе выживают только сильнейшие, и те, кому это удается, остаются полноправными повелителями своих территорий. 80 миллионов лет тому назад на юге Азиатского континента властвовал тарбозавр - один из самых беспощадных хищников, когда-либо обитавших на планете. Природа заботится о жизни в этих местах: солнце, небо, облака, ветер, деревья, но под сенью этих деревьев идет постоянная борьба за существование. Тарбозавру по имени Петч суждено стать повелителем этого доисторического королевства.

Релиз от: kuzmichm2196
Продолжительность: серии x ~ 00:45:00
Качество видео: HDTVRip
Перевод: Одноголосый закадровый, профессиональный (ТПО Ред Медиа)
Субтитры: отсутствуют

Видео: AVC/H.264, 1920x1080, ~8647 Kbps
Аудио: AC3, 2 ch, 192 Kbps

Содержание:
Общее
Уникальный идентификатор : 224452604573418564896355609081979373104 (0xA8DBFFCD2B02DE95888C91F6F2C88630)
Полное имя : A:\Релизы\NG.Tarbosaur.(2009).HDTV.1080i\NG.Tarbosaur.(2009).HDTV.1080i(1.iz.2).mkv
Формат : Matroska
Версия формата : Version 2
Размер файла : 2,93 Гбайт
Продолжительность : 46 м.
Режим общего битрейта : Переменный
Общий поток : 9018 Кбит/сек
Дата кодирования : UTC 2012-11-04 15:25:23
Программа кодирования : mkvmerge v5.7.0 ('The Whirlwind') built on Jul 8 2012 20:08:51
Библиотека кодирования : libebml v1.2.3 + libmatroska v1.3.0

Видео
Идентификатор : 1
Формат : AVC
Формат/Информация : Advanced Video Codec
Профиль формата : High@L4.0
Параметр CABAC формата : Нет
Параметр ReFrames формата : 2 кадра
Параметр GOP формата : M=3, N=15
Идентификатор кодека : V_MPEG4/ISO/AVC
Продолжительность : 46 м.
Вид битрейта : Переменный
Битрейт : 8647 Кбит/сек
Максимальный битрейт : 19,4 Мбит/сек
Ширина : 1920 пикселей
Высота : 1080 пикселей
Соотношение сторон : 16:9
Частота кадров : 25,000 кадров/сек
Стандарт вещания : PAL
Цветовое пространство : YUV
Субдискретизация насыщенности : 4:2:0
Битовая глубина : 8 бит
Тип развёртки : MBAFF
Бит/(Пиксели*Кадры) : 0.167
Размер потока : 2,81 Гбайт (96%)
Default : Да
Forced : Нет
Основные цвета : BT.709-5, BT.1361, IEC 61966-2-4, SMPTE RP177
Характеристики трансфера : BT.709-5, BT.1361
Коэффициенты матрицы : BT.709-5, BT.1361, IEC 61966-2-4 709, SMPTE RP177

Аудио
Идентификатор : 2
Формат : AC-3
Формат/Информация : Audio Coding 3
Расширение режима : CM (complete main)
Параметр Endianness формата : Big
Идентификатор кодека : A_AC3
Продолжительность : 46 м.
Вид битрейта : Постоянный
Битрейт : 192 Кбит/сек
Каналы : 2 канала
Расположение каналов : Front: L R
Частота : 48,0 КГц
Битовая глубина : 16 бит
Метод сжатия : С потерями
Размер потока : 63,9 Мбайт (2%)
Заголовок : RUS DD 2.0 192 Kbps [ 1 - GOLOSIY ]
Язык : Russian
Default : Да
Forced : Нет
Скриншоты:

Общее
Уникальный идентификатор : 229826035099613225400558202874251866316 (0xACE6E26178FBB4E185723157B44270CC)
Полное имя : A:\Релизы\NG.Tarbosaur.(2009).HDTV.1080i\NG.Tarbosaur.(2009).HDTV.1080i(2.iz.2).mkv
Формат : Matroska
Версия формата : Version 2
Размер файла : 2,92 Гбайт
Продолжительность : 44 м.
Режим общего битрейта : Переменный
Общий поток : 9372 Кбит/сек
Дата кодирования : UTC 2012-11-04 15:39:30
Программа кодирования : mkvmerge v5.7.0 ('The Whirlwind') built on Jul 8 2012 20:08:51
Библиотека кодирования : libebml v1.2.3 + libmatroska v1.3.0

Видео
Идентификатор : 1
Формат : AVC
Формат/Информация : Advanced Video Codec
Профиль формата : High@L4.0
Параметр CABAC формата : Нет
Параметр ReFrames формата : 2 кадра
Параметр GOP формата : M=3, N=15
Идентификатор кодека : V_MPEG4/ISO/AVC
Продолжительность : 44 м.
Вид битрейта : Переменный
Битрейт : 8994 Кбит/сек
Максимальный битрейт : 19,9 Мбит/сек
Ширина : 1920 пикселей
Высота : 1080 пикселей
Соотношение сторон : 16:9
Частота кадров : 25,000 кадров/сек
Стандарт вещания : PAL
Цветовое пространство : YUV
Субдискретизация насыщенности : 4:2:0
Битовая глубина : 8 бит
Тип развёртки : MBAFF
Бит/(Пиксели*Кадры) : 0.173
Размер потока : 2,81 Гбайт (96%)
Default : Да
Forced : Нет
Основные цвета : BT.709-5, BT.1361, IEC 61966-2-4, SMPTE RP177
Характеристики трансфера : BT.709-5, BT.1361
Коэффициенты матрицы : BT.709-5, BT.1361, IEC 61966-2-4 709, SMPTE RP177

Аудио
Идентификатор : 2
Формат : AC-3
Формат/Информация : Audio Coding 3
Расширение режима : CM (complete main)
Параметр Endianness формата : Big
Идентификатор кодека : A_AC3
Продолжительность : 44 м.
Вид битрейта : Постоянный
Битрейт : 192 Кбит/сек
Каналы : 2 канала
Расположение каналов : Front: L R
Частота : 48,0 КГц
Битовая глубина : 16 бит
Метод сжатия : С потерями
Размер потока : 61,3 Мбайт (2%)
Заголовок : RUS DD 2.0 192 Kbps [ 1 - GOLOSIY ]
Язык : Russian
Default : Да
Forced : Нет
Скриншоты:

Скриншоты:


Все одноименные релизы в Клубе
Время раздачи: с 18:00 до 23:00 (до появления первых 3-5 скачавших)
Пожалуйста, не уходите с раздачи - помогите докачать другим. Если понравился релиз - жмите кнопку "Спасибо"! :приветствую:
[NNM-Club.ru]_NG.Tarbosaur.(2009).HDTV.1080i.torrent
 Торрент: Платиновая раздача  Зарегистрирован
 
Скачать


Примагнититься
 Зарегистрирован:   20 Апр 2013 17:15:05
 Размер:   5,85 GB  (
 Рейтинг:   4,9 (Голосов: 35)
 Поблагодарили:   144
 Проверка:   Оформление проверено модератором 20 Апр 2013 17:16:40
Как cкачать  ·  Как раздать  ·  Правильно оформить  ·  Поднять ратио!  
Co-Pilot
Uploader 100+
 
Стаж: 8 лет 11 мес.
Сообщений: 1777
Ratio: 11K
Раздал: 342,6 TB
Поблагодарили: 641
100%
Откуда: СССР
ussr.gif
Люблю такие фильмы.
Спасибо большое!

_________________
Показать сообщения:   
Начать новую тему   Ответить на тему    Торрент-трекер NNM-Club -> Зарубежные TV-бренды -> Доисторический мир Часовой пояс: GMT + 3
Страница 1 из 1