Классический форум-трекер
canvas not supported
Нас вместе: 4 077 824

Харуки Мураками | Страна Чудес без тормозов и Конец Света (2013) [M4B|AAC]


 
 
RSS
Начать новую тему   Ответить на тему    Торрент-трекер NNM-Club -> Аудио и Видео -> Аудиокниги (AAC)
Автор Сообщение
igooru ®
Стаж: 9 лет 7 мес.
Сообщений: 52
Ratio: 2,67
Раздал: 916 GB
Поблагодарили: 4594
100%
ussr.gif
Харуки Мураками | Страна Чудес без тормозов и Конец Света
Автор: Харуки Мураками
Год: 2013
Жанр: роман, фантастика
Продолжительность: 16:37:37
Перевод: Дмитрий Коваленин
Исполнитель: Игорь Князев

Описание: …Что ни говори, а справедливость применима только в страшно ограниченном мире. Но зато — ко всей жизни сразу. От улитки и скобяной лавки — до супружества. И даже если моя справедливость никому не нужна, ничего другого я предложить всё равно не могу. В этом смысле она сродни любви. Но то, что хочешь отдать, далеко не всегда совпадает с тем, что от тебя ожидают…

Выдающийся и, несомненно, самый яркий роман Харуки Мураками.


Формат: M4B
Аудиокодек: AAC
Битрейт: 128 kbps
Частота: 44,1 KHz
Разбивка на части: есть
Разбивка на главы: есть
Вшитые обложки: есть
Музыкальное сопровождение: да
Общее
Полное имя : /Харуки Мураками/Страна Чудес без тормозов и Конец Света (читает Игорь Князев)/Страна Чудес без тормозов и Конец Света. Часть 1.m4b
Формат : MPEG-4
Профиль формата : Base Media / Version 2
Идентификатор кодека : mp42 (mp42/mp41)
Размер файла : 424 Мбайт
Продолжительность : 9 ч. 24 м.
Режим общего битрейта : Постоянный
Общий поток : 105 Кбит/сек
Название фильма : Страна Чудес без тормозов и Конец Света. Часть 1
Альбом : Страна Чудес без тормозов и Конец Света
Альбом/Исполнитель : Харуки Мураками
Трек/Положение : 1
Трек/Всего : 2
Исполнитель : Харуки Мураками
Исполнитель/Сортировать по : Харуки Мураками
Композитор : Игорь Князев
Жанр : роман, фантастика, сюрреализм, антиутопия, фэнтези
Тип содержимого : Audiobook
Описание : Чего ж удивляться, если в странном месте случаются странные вещи?…
Дата записи : 2013
Дата кодирования : UTC 2016-05-25 19:55:52
Дата пометки : UTC 2016-05-25 23:09:27
Программа кодирования : для библиотеки WWW.AUDIOKNIGA.ORG (Rusticus IV) / QuickTime 7.7.3
Авторское право : Haruki Murakami
Обложка : Yes
Текст песен : Харуки Мураками, Haruki Murakami, Hard-Boiled Wonderland and the End of the World, Страна Чудес без тормозов и Конец Света, Дмитрий Коваленин, Игорь Князев, роман, фантастика, сюрреализм, антиутопия, фэнтези, аудиокнига, audiobook, audiokniga.org
Примечание : перевод Дмитрий Коваленин
LongDescription : …Я, конечно, не думаю, что людей можно классифицировать, но условно я разделил бы их на два типа. Люди с универсальным видением мира — и люди с ограниченным взглядом. Я свой взгляд на мир ограничиваю. И дело тут не в том, правильные у меня границы или неправильные. Всё равно где-то протянется граница: что моё, а что — нет. Для кого-то очевидно, а кто-то вообще так вопрос не ставит…
Title/Sort : Страна Чудес без тормозов и Конец Света. Часть 1

Видео
Идентификатор : 2
Формат : JPEG
Идентификатор кодека : jpeg
Продолжительность : 9 ч. 24 м.
Вид битрейта : Постоянный
Битрейт : 7 бит/сек
Ширина : 512 пикселей
Высота : 512 пикселей
Соотношение сторон : 1,000
Режим частоты кадров : Постоянный
Частота кадров : 0,000 кадр/сек
Цветовое пространство : YUV
Субдискретизация насыщенности : 4:2:0
Битовая глубина : 8 бит
Метод сжатия : С потерями
Размер потока : 28,9 Кбайт (0%)
Язык : English
Дата кодирования : UTC 2016-05-25 19:56:50
Дата пометки : UTC 2016-05-25 19:56:51
Menu For : 1

Аудио
Идентификатор : 1
Формат : AAC
Формат/Информация : Advanced Audio Codec
Профиль формата : LC
Идентификатор кодека : 40
Продолжительность : 9 ч. 24 м.
Продолжительность оригинала : 9 ч. 24 м.
Вид битрейта : Постоянный
Битрейт : 103 Кбит/сек
Номинальный битрейт : 128 Кбит/сек
Каналы : 2 канала
Расположение каналов : Front: L R
Частота : 44,1 КГц
Частота кадров : 43,066 кадра/сек (1024 spf)
Метод сжатия : С потерями
Размер потока : 417 Мбайт (98%)
Размер потока оригинала : 417 Мбайт (98%)
Язык : English
Дата кодирования : UTC 2016-05-25 19:55:42
Дата пометки : UTC 2016-05-25 23:09:27
Menus : 3,2

Меню
Идентификатор : 3
Идентификатор кодека : text
Продолжительность : 9 ч. 24 м.
Язык : English
Дата кодирования : UTC 2016-05-25 19:56:50
Дата пометки : UTC 2016-05-25 19:56:51
Menu For : 1
00:00:00.000 : 1. Страна Чудес без тормозов. Лифт. Тишина. Манера толстеть
00:26:04.361 : 2. Конец Света. Золотые звери
00:39:05.968 : 3. Страна Чудес без тормозов. Дождевик. Жаббервоги. Стирка
01:24:22.698 : 4. Конец Света. Библиотека
01:41:05.065 : 5. Страна Чудес без тормозов. Конвертация. Эволюция. Сексуальность
02:12:55.553 : 6. Конец Света. Тень
02:31:17.783 : 7. Страна Чудес без тормозов. Череп. Лорен Баколл. Библиотека
03:14:42.628 : 8. Конец Света. Полковник
03:28:11.508 : 9. Страна Чудес без тормозов. Аппетит. Фиаско. Ленинград
04:11:00.751 : 10. Конец Света. Стена
04:20:59.998 : 11. Страна Чудес без тормозов. Одевание. Арбуз. Хаос
04:32:59.696 : 12. Конец Света. Карта Конца Света
04:48:36.733 : 13. Страна Чудес без тормозов. Франкфурт. Дверь. Свободные художники
05:43:09.705 : 14. Конец Света. Лес
06:02:41.686 : 15. Страна Чудес без тормозов. Виски. Пытка. Тургенев
06:40:00.060 : 16. Конец Света. Зима приходит
06:57:58.653 : 17. Страна Чудес без тормозов. Конец света. Чарли Паркер. Часовая бомба
07:14:41.385 : 18. Конец Света. Чтение снов
07:23:33.311 : 19. Страна Чудес без тормозов. Гамбургер. Скайлайн. Крайний срок
07:55:00.131 : 20. Конец Света. Звери умирают
08:05:25.605 : 21. Страна Чудес без тормозов. Браслеты. Бен Джонсон. Дьявол
09:05:49.775 : 22. Конец Света. Пепельный дым
Вид битрейта : VBR
Общее
Полное имя : /Харуки Мураками/Страна Чудес без тормозов и Конец Света (читает Игорь Князев)/Страна Чудес без тормозов и Конец Света. Часть 2.m4b
Формат : MPEG-4
Профиль формата : Base Media / Version 2
Идентификатор кодека : mp42 (mp42/mp41)
Размер файла : 322 Мбайт
Продолжительность : 7 ч. 13 м.
Режим общего битрейта : Постоянный
Общий поток : 104 Кбит/сек
Название фильма : Страна Чудес без тормозов и Конец Света. Часть 2
Альбом : Страна Чудес без тормозов и Конец Света
Альбом/Исполнитель : Харуки Мураками
Трек/Положение : 2
Трек/Всего : 2
Исполнитель : Харуки Мураками
Исполнитель/Сортировать по : Харуки Мураками
Композитор : Игорь Князев
Жанр : роман, фантастика, сюрреализм, антиутопия, фэнтези
Тип содержимого : Audiobook
Описание : Чего ж удивляться, если в странном месте случаются странные вещи?…
Дата записи : 2013
Дата кодирования : UTC 2016-05-25 20:01:31
Дата пометки : UTC 2016-05-25 23:09:58
Программа кодирования : для библиотеки WWW.AUDIOKNIGA.ORG (Rusticus IV) / QuickTime 7.7.3
Авторское право : Haruki Murakami
Обложка : Yes
Текст песен : Харуки Мураками, Haruki Murakami, Hard-Boiled Wonderland and the End of the World, Страна Чудес без тормозов и Конец Света, Дмитрий Коваленин, Игорь Князев, роман, фантастика, сюрреализм, антиутопия, фэнтези, аудиокнига, audiobook, audiokniga.org
Примечание : перевод Дмитрий Коваленин
LongDescription : …Я, конечно, не думаю, что людей можно классифицировать, но условно я разделил бы их на два типа. Люди с универсальным видением мира — и люди с ограниченным взглядом. Я свой взгляд на мир ограничиваю. И дело тут не в том, правильные у меня границы или неправильные. Всё равно где-то протянется граница: что моё, а что — нет. Для кого-то очевидно, а кто-то вообще так вопрос не ставит…
Title/Sort : Страна Чудес без тормозов и Конец Света. Часть 2

Видео
Идентификатор : 2
Формат : JPEG
Идентификатор кодека : jpeg
Продолжительность : 7 ч. 13 м.
Вид битрейта : Постоянный
Битрейт : 9 бит/сек
Ширина : 512 пикселей
Высота : 512 пикселей
Соотношение сторон : 1,000
Режим частоты кадров : Постоянный
Частота кадров : 0,000 кадр/сек
Цветовое пространство : YUV
Субдискретизация насыщенности : 4:2:0
Битовая глубина : 8 бит
Метод сжатия : С потерями
Размер потока : 28,9 Кбайт (0%)
Язык : English
Дата кодирования : UTC 2016-05-25 20:02:13
Дата пометки : UTC 2016-05-25 20:02:13
Menu For : 1

Аудио
Идентификатор : 1
Формат : AAC
Формат/Информация : Advanced Audio Codec
Профиль формата : LC
Идентификатор кодека : 40
Продолжительность : 7 ч. 13 м.
Продолжительность оригинала : 7 ч. 13 м.
Вид битрейта : Постоянный
Битрейт : 102 Кбит/сек
Номинальный битрейт : 128 Кбит/сек
Каналы : 2 канала
Расположение каналов : Front: L R
Частота : 44,1 КГц
Частота кадров : 43,066 кадра/сек (1024 spf)
Метод сжатия : С потерями
Размер потока : 316 Мбайт (98%)
Размер потока оригинала : 316 Мбайт (98%)
Язык : English
Дата кодирования : UTC 2016-05-25 20:01:24
Дата пометки : UTC 2016-05-25 23:09:58
Menus : 3,2

Меню
Идентификатор : 3
Идентификатор кодека : text
Продолжительность : 7 ч. 13 м.
Язык : English
Дата кодирования : UTC 2016-05-25 20:02:13
Дата пометки : UTC 2016-05-25 20:02:13
Menu For : 1
00:00:00.000 : 23. Страна Чудес без тормозов. Дыры. Пиявки. Башня
00:38:22.738 : 24. Конец Света. Площадь теней
00:56:14.928 : 25. Страна Чудес без тормозов. Еда. Фабрика грез. Западня
01:52:48.981 : 26. Конец Света. Электростанция
02:07:50.176 : 27. Страна Чудес без тормозов. Летопись на зубочистке. Бессмертие. Скрепки
02:25:03.760 : 28. Конец Света. Инструмент
02:37:12.705 : 29. Страна чудес без тормозов. Озеро. Масатоми Кондо. Колготки
03:18:35.688 : 30. Конец Света. Яма
03:33:19.041 : 31. Страна Чудес без тормозов. Турникет. Полис. Стиральный порошок
04:01:28.348 : 32. Конец Света. Тень исчезает
04:16:44.251 : 33. Страна Чудес без тормозов. Стирка в дождь. Машина в аренду. Боб Дилан
04:50:02.536 : 34. Конец Света. Черепа
05:04:10.391 : 35. Страна Чудес без тормозов. Кусачки для ногтей. Сливочный соус. Железная ваза
05:37:34.371 : 36. Конец Света. Аккордеон
05:49:40.000 : 37. Страна Чудес без тормозов. Свет. Самокопание. Чистота
06:12:11.986 : 38. Конец Света. Побег
06:33:43.608 : 39. Страна Чудес без тормозов. Поп-корн. Лорд Джим. Исчезновения
07:00:11.821 : 40. Конец Света. Птица
Вид битрейта : VBR
[NNMClub.to]_Haruki Murakami - Hard-Boiled Wonderland and the End of the World.torrent
 Торрент: Платиновая раздача  Зарегистрирован
 
Скачать


Примагнититься
 Зарегистрирован:   26 Май 2016 13:08:29
 Размер:   746 MB  (
 Рейтинг:   4,6 (Голосов: 23)
 Поблагодарили:   113
 Проверка:   Оформление проверено модератором 26 Май 2016 14:45:11
Как cкачать  ·  Как раздать  ·  Правильно оформить  ·  Поднять ратио!  
vovansrnd
Стаж: 8 лет 1 мес.
Сообщений: 902
Ratio: 56,286
Поблагодарили: 319
100%
Да, влюбился я в Мураками после этой книги. Концовка очень зацепила. Ну а Князев... Он традиционно на высоте.
k338916
Стаж: 8 лет 10 мес.
Сообщений: 55
Ratio: 8,076
38.76%
А мне бы не разлюбить: Ленинградский университет был разрушен "немецкой артиллерией и русскими бомбардировщиками"??? :(
Ну то, что япономериканец вражьи козьи модры рассовывает этаким 25-м кадром - как бы понять можно. А вот, как Князев не поперхнулся в этом месте... Товарищ, вы не оттого ли в декламаторы стремились, что в прошлой жизни не дотрудились пропагандистом с той стороны передовой?
Показать сообщения:   
Начать новую тему   Ответить на тему    Торрент-трекер NNM-Club -> Аудио и Видео -> Аудиокниги (AAC) Часовой пояс: GMT + 3
Страница 1 из 1