Классический форум-трекер
canvas not supported
Нас вместе: 4 079 126

Змей и радуга / The Serpent and the Rainbow (1988) BDRip


 
 
RSS
Начать новую тему   Ответить на тему    Торрент-трекер NNM-Club -> Классика кино и Старые фильмы до 90-х -> Старые Зарубежные Фильмы (HD*Rip/LQ, DVDRip, SATRip, VHSRip)
Автор Сообщение
MakssGame ®
Стаж: 6 лет 11 мес.
Сообщений: 2790
Ratio: 47,208
Поблагодарили: 152600
100%
Cape_Verde.gif
Змей и радуга / The Serpent and the Rainbow (1988) BDRip
Год выпуска: 1988
Производство: США / Universal Pictures
Жанр: Ужасы, Мистика

Описание фильма:
Эта картина основана на реальных событиях, происшедших с ученым Уэйдом Дэйвисом. Деннис Алан, антрополог из Гарвардского Университета, отправляется на родину черной магии Вуду — остров Гаити, чтобы найти место изготовления странного порошка. Местная легенда гласит, что порошок этот способен возвращать к жизни мертвецов. На острове Алану предстоит столкнуться со страшной наукой, история которой уходит в глубь веков, наукой, ниспровергающей все человеческие представления о жизни и смерти.

Режиссер: Уэс Крэйвен
Актеры: Билл Пуллман, Кэти Тайсон, Закес Мокае , Пол Уинфилд , Брент Дженнингс , Конрад Робертс , Баджа Джола, Тереза Меррит , Майкл Гоф, Пол Гилфойл

Продолжительность: 01:38:03
Качество видео: BDRip
Перевод: Профессиональный многоголосый (R5), (ОРТ), (СТС) / Профессиональный одноголосый / Авторский одноголосый (В. Горчаков), (М. Иванов)
Язык субтитров: Английский
Вид субтитров: Вшитые (отключаемые отдельным файлом)



Видеокодек: Xvid
Битрейт видео: ~1672 Кбит/с
Размер кадра: 704x384
Аудио:
Аудио #1: АС3 5.1, 448 Кбит/сек |Профессиональный многоголосый (R5)
Аудио #2: АС3 2.0, 192 Кбит/сек |Профессиональный многоголосый (ОРТ) [Отдельно]
Аудио #3: АС3 2.0, 128 Кбит/сек |Профессиональный многоголосый (СТС) [Отдельно]
Аудио #4: АС3 2.0, 192 Кбит/сек |Профессиональный одноголосый [Отдельно]
Аудио #5: АС3 2.0, 192 Кбит/сек |Авторский одноголосый (В. Горчаков), (М. Иванов) [Отдельно]
Аудио #6: АС3 2.0, 192 Кбит/сек |Оригинальный (Английский) [Отдельно]
Сэмпл: Ссылка
Общее
Формат : AVI
Формат/Информация : Audio Video Interleave
Размер файла : 1,46 Гбайт
Продолжительность : 1 ч. 38 м.
Общий поток : 2128 Кбит/сек
Программа кодирования : VirtualDubMod 1.5.10.3 | www.virtualdub-fr.org || (build 2550/release)
Библиотека кодирования : VirtualDubMod build 2550/release

Видео
Идентификатор : 0
Формат : MPEG-4 Visual
Профиль формата : Advanced Simple@L5
Параметр BVOP формата : 4
Параметр QPel формата : Нет
Параметр GMC формата : Без точки перехода
Параметр матрицы формата : Default (MPEG)
Идентификатор кодека : XVID
Идентификатор кодека/Подсказка : XviD
Продолжительность : 1 ч. 38 м.
Битрейт : 1672 Кбит/сек
Ширина : 704 пикселя
Высота : 384 пикселя
Соотношение сторон : 1,85:1
Частота кадров : 23,976 кадра/сек
Цветовое пространство : YUV
Субдискретизация насыщенности : 4:2:0
Битовая глубина : 8 бит
Тип развёртки : Прогрессивная
Метод сжатия : С потерями
Бит/(Пиксели*Кадры) : 0.258
Размер потока : 1,14 Гбайт (79%)
Библиотека кодирования : XviD 1.2.1 (UTC 2008-12-04)

Аудио
Идентификатор : 1
Формат : AC-3
Формат/Информация : Audio Coding 3
Расширение режима : CM (complete main)
Параметр Endianness формата : Big
Идентификатор кодека : 2000
Продолжительность : 1 ч. 37 м.
Вид битрейта : Постоянный
Битрейт : 448 Кбит/сек
Каналы : 6 каналов
Расположение каналов : Front: L C R, Side: L R, LFE
Частота : 48,0 КГц
Битовая глубина : 16 бит
Метод сжатия : С потерями
Размер потока : 314 Мбайт (21%)
Выравнивание : Разделение по промежуткам
Продолжительность промежутка : 42 мс. (1,00 видеокадр)
Время предзагрузки промежутка : 500 мс.

Общее
Формат : AC-3
Формат/Информация : Audio Coding 3
Размер файла : 135 Мбайт
Продолжительность : 1 ч. 38 м.
Режим общего битрейта : Постоянный
Общий поток : 192 Кбит/сек

Аудио
Формат : AC-3
Формат/Информация : Audio Coding 3
Расширение режима : CM (complete main)
Параметр Endianness формата : Big
Продолжительность : 1 ч. 38 м.
Вид битрейта : Постоянный
Битрейт : 192 Кбит/сек
Каналы : 2 канала
Расположение каналов : Front: L R
Частота : 48,0 КГц
Битовая глубина : 16 бит
Метод сжатия : С потерями
Размер потока : 135 Мбайт (100%)

Общее
Формат : SubRip
Размер файла : 58,8 Кбайт

Текст
Формат : SubRip
Метод сжатия : Без потерь

Общее
Формат : AC-3
Формат/Информация : Audio Coding 3
Размер файла : 135 Мбайт
Продолжительность : 1 ч. 37 м.
Режим общего битрейта : Постоянный
Общий поток : 192 Кбит/сек

Аудио
Формат : AC-3
Формат/Информация : Audio Coding 3
Профиль формата : Dolby Digital
Расширение режима : CM (complete main)
Параметр Endianness формата : Big
Продолжительность : 1 ч. 37 м.
Вид битрейта : Постоянный
Битрейт : 192 Кбит/сек
Каналы : 2 канала
Расположение каналов : Front: L R
Частота : 48,0 КГц
Битовая глубина : 16 бит
Метод сжатия : С потерями
Размер потока : 135 Мбайт (100%)

Общее
Формат : AC-3
Формат/Информация : Audio Coding 3
Размер файла : 89,6 Мбайт
Продолжительность : 1 ч. 37 м.
Режим общего битрейта : Постоянный
Общий поток : 128 Кбит/сек

Аудио
Формат : AC-3
Формат/Информация : Audio Coding 3
Расширение режима : CM (complete main)
Параметр Endianness формата : Big
Продолжительность : 1 ч. 37 м.
Вид битрейта : Постоянный
Битрейт : 128 Кбит/сек
Каналы : 2 канала
Расположение каналов : Front: L R
Частота : 48,0 КГц
Битовая глубина : 16 бит
Метод сжатия : С потерями
Размер потока : 89,6 Мбайт (100%)

Общее
Формат : AC-3
Формат/Информация : Audio Coding 3
Размер файла : 135 Мбайт
Продолжительность : 1 ч. 37 м.
Режим общего битрейта : Постоянный
Общий поток : 192 Кбит/сек

Аудио
Формат : AC-3
Формат/Информация : Audio Coding 3
Профиль формата : Dolby Digital
Расширение режима : CM (complete main)
Параметр Endianness формата : Big
Продолжительность : 1 ч. 37 м.
Вид битрейта : Постоянный
Битрейт : 192 Кбит/сек
Каналы : 2 канала
Расположение каналов : Front: L R
Частота : 48,0 КГц
Битовая глубина : 16 бит
Метод сжатия : С потерями
Размер потока : 135 Мбайт (100%)

Общее
Формат : AC-3
Формат/Информация : Audio Coding 3
Размер файла : 89,8 Мбайт
Продолжительность : 1 ч. 38 м.
Режим общего битрейта : Постоянный
Общий поток : 128 Кбит/сек

Аудио
Формат : AC-3
Формат/Информация : Audio Coding 3
Расширение режима : CM (complete main)
Параметр Endianness формата : Big
Продолжительность : 1 ч. 38 м.
Вид битрейта : Постоянный
Битрейт : 128 Кбит/сек
Каналы : 2 канала
Расположение каналов : Front: L R
Частота : 48,0 КГц
Битовая глубина : 16 бит
Метод сжатия : С потерями
Размер потока : 89,8 Мбайт (100%)

Общее
Формат : AC-3
Формат/Информация : Audio Coding 3
Размер файла : 135 Мбайт
Продолжительность : 1 ч. 37 м.
Режим общего битрейта : Постоянный
Общий поток : 192 Кбит/сек

Аудио
Формат : AC-3
Формат/Информация : Audio Coding 3
Профиль формата : Dolby Digital
Расширение режима : CM (complete main)
Параметр Endianness формата : Big
Продолжительность : 1 ч. 37 м.
Вид битрейта : Постоянный
Битрейт : 192 Кбит/сек
Каналы : 2 канала
Расположение каналов : Front: L R
Частота : 48,0 КГц
Битовая глубина : 16 бит
Метод сжатия : С потерями
Размер потока : 135 Мбайт (100%)
Скриншоты:




Время раздачи: 10:00-24:00
[NNM-Club.me]_Zmei.i.radyga.1988.XviD.BDRip.torrent
 Торрент: Платиновая раздача  Зарегистрирован
 
Скачать


Примагнититься
 Зарегистрирован:   05 Июн 2014 12:51:44
 Размер:   2,16 GB  (
 Рейтинг:   4,8 (Голосов: 36)
 Поблагодарили:   129
 Проверка:   Оформление проверено модератором 05 Июн 2014 14:35:44
Как cкачать  ·  Как раздать  ·  Правильно оформить  ·  Поднять ратио!  
Загрузка...
sergio1975
Стаж: 8 лет 4 мес.
Сообщений: 1536
Ratio: 7,004
100%
Откуда: Новосибирск
russia.gif
даже сейчас неплохо смотрится
MEDIC1967
Стаж: 7 лет 8 мес.
Сообщений: 3889
Ratio: 69,565
Раздал: 11,04 TB
Поблагодарили: 67510
100%
Откуда: Вятка
russia.gif
Классика ужаса потому что!
oleg-lotus
Стаж: 8 лет 11 мес.
Сообщений: 549
Ratio: 2,736
100%
Откуда: Odessa
ukraine.gif
Обалденный фильм!
Топик был перенесен из форума Грайндхаус в форум Старые Зарубежные Фильмы (HD*Rip/LQ, DVDRip, SATRip, VHSRip)



Исправил релиз - напиши ЛС MAG3131, дав ссылку на релиз.
Если нет ответа 24 часа - нажми на кнопку "Обратить внимание модераторов".
Показать сообщения:   
Начать новую тему   Ответить на тему    Торрент-трекер NNM-Club -> Классика кино и Старые фильмы до 90-х -> Старые Зарубежные Фильмы (HD*Rip/LQ, DVDRip, SATRip, VHSRip) Часовой пояс: GMT + 3
Страница 1 из 1