Классический форум-трекер
canvas not supported
Нас вместе: 4 077 930

Техника змеи и журавля Шаолиня / Snake and Crane Art of Shaolin (1978) DVD9 MVO + Визгунов


 
 
RSS
Начать новую тему   Ответить на тему    Торрент-трекер NNM-Club -> Зарубежное кино -> Азиатское кино (DVD)
Автор Сообщение
Борисыч ®
Uploader 100+
 
Стаж: 9 лет 6 мес.
Сообщений: 298
Ratio: 928,319
Поблагодарили: 12509
100%
Техника змеи и журавля Шаолиня / Snake and Crane Art of Shaolin (1978) DVD9
Русское название: Техника змеи и журавля Шаолиня
Оригинальное название: Snake and Crane Art of Shaolin
Год выпуска: 1978
Жанр: Боевик,Кунг-Фу

Описание фильма:
Каждый год восемь мастеров кун-фу из монастырей Шаолиня собирались вместе. Однажды после долгих обсуждений, рассмотрев все известные виды кун-фу, они соединили воедино самое лучшее в этих боевых искусствах. Так появилась новая техника, названная "Восемь ступеней Змеи и Журавля"...

Режиссер: Чи-Хва Чен /Chi-Hwa Chen
Актеры: Джеки Чан, Нора Йинг, Конг Ким, Питер Ки Тонг..

Продолжительность: 01:36:57
Перевод: Любительский одноголосый



Дата мировой премьеры: 8 марта 1978

Видеокодек: MPEG-2
Битрейт видео: 25.000 fps ; ~10129.30 kbps avg
Размер кадра: PAL 16:9 (720x576) VBR Auto Letterboxed
Качество видео: DVD9
Аудиокодек: AC3
Битрейт аудио:
Audio #1: Chinese AC3, 3/2 (L,C,R,SL,SR)+LFE ch, 448 kbps, Delay -56 mSec
Audio #2: English AC3, 3/2 (L,C,R,SL,SR)+LFE ch, 448 kbps, Delay -56 mSec
Audio #3: Chinese AC3, 2/0 (L,R) ch, 192 kbps, Delay -56 mSec
Audio #4: Russian AC3, 2/0 (L,R) ch, 192 kbps, Delay -56 mSec
Audio #5: Russian AC3, 2/0 (L,R) ch, 192 kbps, Delay -56 mSec
Сэмпл
Полное имя : G:\DVD\Змея и Журавль DVD9\VIDEO_TS\VTS_01_1.VOB
Формат : MPEG-PS
Размер файла : 1024 Мбайт
Продолжительность : 14 м.
Режим общего битрейта : Переменный
Общий поток : 9815 Кбит/сек

Видео
Идентификатор : 224 (0xE0)
Формат : MPEG Video
Версия формата : Version 2
Профиль формата : Main@Main
Параметр BVOP формата : Да
Параметр матрицы формата : Выборочная
Продолжительность : 14 м.
Вид битрейта : Переменный
Битрейт : 8147 Кбит/сек
Ширина : 720 пикселей
Высота : 576 пикселей
Соотношение сторон : 16:9
Частота кадров : 25,000 кадров/сек
Стандарт вещания : PAL
Цветовое пространство : YUV
Субдискретизация насыщенности : 4:2:0
Битовая глубина : 8 бит
Тип развёртки : Прогрессивная
Порядок развёртки : Верхнее поле первое
Метод сжатия : С потерями
Бит/(Пиксели*Кадры) : 0.786
Размер потока : 850 Мбайт (83%)

Аудио #1
Идентификатор : 189 (0xBD)-128 (0x80)
Формат : AC-3
Формат/Информация : Audio Coding 3
Расширение режима : CM (complete main)
Режим смешивания : DVD-Video
Продолжительность : 14 м.
Вид битрейта : Постоянный
Битрейт : 448 Кбит/сек
Каналы : 6 каналов
Расположение каналов : Front: L C R, Side: L R, LFE
Частота : 48,0 КГц
Битовая глубина : 16 бит
Метод сжатия : С потерями
Задержка видео : -56 мс.
Размер потока : 46,7 Мбайт (5%)

Аудио #2
Идентификатор : 189 (0xBD)-129 (0x81)
Формат : AC-3
Формат/Информация : Audio Coding 3
Расширение режима : CM (complete main)
Режим смешивания : DVD-Video
Продолжительность : 14 м.
Вид битрейта : Постоянный
Битрейт : 448 Кбит/сек
Каналы : 6 каналов
Расположение каналов : Front: L C R, Side: L R, LFE
Частота : 48,0 КГц
Битовая глубина : 16 бит
Метод сжатия : С потерями
Задержка видео : -56 мс.
Размер потока : 46,7 Мбайт (5%)

Аудио #3
Идентификатор : 189 (0xBD)-130 (0x82)
Формат : AC-3
Формат/Информация : Audio Coding 3
Расширение режима : CM (complete main)
Режим смешивания : DVD-Video
Продолжительность : 14 м.
Вид битрейта : Постоянный
Битрейт : 192 Кбит/сек
Каналы : 2 канала
Расположение каналов : Front: L R
Частота : 48,0 КГц
Битовая глубина : 16 бит
Метод сжатия : С потерями
Задержка видео : -56 мс.
Размер потока : 20,0 Мбайт (2%)

Аудио #4
Идентификатор : 189 (0xBD)-131 (0x83)
Формат : AC-3
Формат/Информация : Audio Coding 3
Расширение режима : CM (complete main)
Режим смешивания : DVD-Video
Продолжительность : 14 м.
Вид битрейта : Постоянный
Битрейт : 192 Кбит/сек
Каналы : 2 канала
Расположение каналов : Front: L R
Частота : 48,0 КГц
Битовая глубина : 16 бит
Метод сжатия : С потерями
Задержка видео : -56 мс.
Размер потока : 20,0 Мбайт (2%)

Аудио #5
Идентификатор : 189 (0xBD)-132 (0x84)
Формат : AC-3
Формат/Информация : Audio Coding 3
Расширение режима : CM (complete main)
Режим смешивания : DVD-Video
Продолжительность : 14 м.
Вид битрейта : Постоянный
Битрейт : 192 Кбит/сек
Каналы : 2 канала
Расположение каналов : Front: L R
Частота : 48,0 КГц
Битовая глубина : 16 бит
Метод сжатия : С потерями
Задержка видео : -56 мс.
Размер потока : 20,0 Мбайт (2%)

Текст
Идентификатор : 189 (0xBD)-32 (0x20)
Формат : RLE
Формат/Информация : Run-length encoding
Режим смешивания : DVD-Video
General
Complete name : G:\DVD\Змея и Журавль DVD9\визгунов.ac3
Format : AC-3
Format/Info : Audio Coding 3
File size : 133 MiB
Duration : 1h 36mn
Overall bit rate mode : Constant
Overall bit rate : 192 Kbps

Audio
Format : AC-3
Format/Info : Audio Coding 3
Mode extension : CM (complete main)
Duration : 1h 36mn
Bit rate mode : Constant
Bit rate : 192 Kbps
Channel(s) : 2 channels
Channel positions : Front: L R
Sampling rate : 48.0 KHz
Bit depth : 16 bits
Compression mode : Lossy
Stream size : 133 MiB (100%)
General
Complete name : G:\DVD\Змея и Журавль DVD9\дорога с тв6.ac3
Format : AC-3
Format/Info : Audio Coding 3
File size : 133 MiB
Duration : 1h 36mn
Overall bit rate mode : Constant
Overall bit rate : 192 Kbps

Audio
Format : AC-3
Format/Info : Audio Coding 3
Mode extension : CM (complete main)
Duration : 1h 36mn
Bit rate mode : Constant
Bit rate : 192 Kbps
Channel(s) : 2 channels
Channel positions : Front: L R
Sampling rate : 48.0 KHz
Bit depth : 16 bits
Compression mode : Lossy
Stream size : 133 MiB (100%)
Скриншоты:
[NNM-Club.ru]_Zmeya i ZHuravl' DVD9.torrent
 Торрент: Платиновая раздача  Зарегистрирован
 
Скачать


Примагнититься
 Зарегистрирован:   05 Июл 2019 19:17:09
 Размер:   7,48 GB  (
 Рейтинг:   4,5 (Голосов: 24)
 Поблагодарили:   84
 Проверка:   Оформление проверено модератором 05 Июл 2019 23:39:42
Как cкачать  ·  Как раздать  ·  Правильно оформить  ·  Поднять ратио!  
ka4ek92
Стаж: 8 лет 11 мес.
Сообщений: 772
Ratio: 2,709
100%
круто, надеюсь фильмец в духе пьяного мастера и змеи в тени орла)
GeorgePak
Стаж: 9 лет 3 мес.
Сообщений: 513
Ratio: 5,744
Поблагодарили: 71
100%
ka4ek92 писал(а): Перейти к сообщению
круто, надеюсь фильмец в духе пьяного мастера и змеи в тени орла)

Тоже люблю животных особенно когда они в тени прячутся друг за дружкой правда один летит по небу а другой на земле :лол:
karfagen1975
Модератор Видео
Стаж: 8 лет 9 мес.
Сообщений: 3071
Ratio: 118,514
Раздал: 69,94 TB
Поблагодарили: 261385
100%
ussr.gif
Торрент перерегистрирован на трекере в рамках акции Включаем DHT в древних раздачах (Обновлено)
Теперь вам нужно его скачать и открыть в торрент-клиенте, указав в качестве места сохранения раздаваемый файл или папку.
Показать сообщения:   
Начать новую тему   Ответить на тему    Торрент-трекер NNM-Club -> Зарубежное кино -> Азиатское кино (DVD) Часовой пояс: GMT + 3
Страница 1 из 1