Классический форум-трекер
canvas not supported
Нас вместе: 4 079 100

Cervello Elettronico - Collection 8 Releases (2007-2019) [FLAC|Lossless|tracks+.cue, tracks] <Industrial, IDM, Rhythmic Noise, Electro, Techno>


 
 
RSS
Начать новую тему   Ответить на тему    Торрент-трекер NNM-Club -> Electronic -> Experimental, Industrial, EBM, Dark Electro (Lossless)
Автор Сообщение
vilator ®
Модератор Музыки
RG Music
 
Стаж: 10 лет 5 мес.
Сообщений: 9435
Ratio: 176,275
Поблагодарили: 191434
100%
Откуда: Minsk
pirates.png
Cervello Elettronico

Taken from the Italian phrase for a computer that literally translates to electronic brain, Cervello Elettronico is the electronic music act founded by David Christian.
Influenced by 80s Industrial and 90s Electronica, the project's inception in 2001 contributed to a new underground scene growing in the New York City area. Several demos and self released EPs were sold and openly distributed throughout the internet before the act landed it's first live show supporting Manufactura and Terrorfakt in the spring of 2004 at NYC's legendary Albion night.

Жанр: Industrial, IDM, Rhythmic Noise, Electro, Techno • Страна: Germany • Год издания: 2007-2019 • Тип издания: CD, Web
Аудиокодек: FLAC (*.flac) • Тип рипа: tracks+.cue, tracks • Продолжительность: 09:39:05 • Источник: What, RED, bandcamp
Треклист:
Год выпуска: 2012
Продолжительность: 01:14:27
Треклист:

01. Process Of Elimination (04:42)
02. Stimulant (05:35)
03. Player (05:22)
04. Violent Skin (05:55)
05. Crystal Lines (05:43)
06. Polarity (06:49)
07. Septic Shock (05:30)
08. Demonize (05:34)
09. Reanimate (05:19)
10. Set On Fire (05:02)
11. Automation And Dissent (05:27)
12. Dead Time (04:28)
13. Automation And Dissent (Zeller Remix) (04:07)
14. Polarity (Aesthetic Perfection Remix) (04:54)

-----------------------

DON'T MODIFY THIS FILE

-----------------------

PERFORMER: auCDtect Task Manager, ver. 1.6.0 RC1 build 1.6.0.1
Copyright (c) 2008-2010 y-soft. All rights reserved
http://y-soft.org

ANALYZER: auCDtect: CD records authenticity detector, version 0.8.2
Copyright (c) 2004 Oleg Berngardt. All rights reserved.
Copyright (c) 2004 Alexander Djourik. All rights reserved.

FILE: 14. Polarity (Aesthetic Perfection Remix).flac
Size: 35258040 Hash: DCA6BC9FAFD6C51C921220BB80C9DC1B Accuracy: -m0
Conclusion: CDDA 99%
Signature: 66B1A0726A6C2F1B8A893538BC3D6301CC401740
FILE: 13. Automation And Dissent (Zeller Remix).flac
Size: 31322464 Hash: EC6917BBC6E05185CCC3116EEF264A73 Accuracy: -m0
Conclusion: CDDA 100%
Signature: 5C7CB10BE5237FD9857F51E020D60686509C8B0C
FILE: 12. Dead Time.flac
Size: 33023896 Hash: AE8CC1A06A06ED7BBC810A1AD1D28308 Accuracy: -m0
Conclusion: CDDA 100%
Signature: 7417FBF653950414D8066A9E2473A61D803BE16C
FILE: 11. Automation And Dissent.flac
Size: 45688582 Hash: 92049CAA2E696B3233457F49000CD344 Accuracy: -m0
Conclusion: CDDA 100%
Signature: EB307B0D93855D0C0454CAC7E1617B054E695371
FILE: 10. Set On Fire.flac
Size: 41480898 Hash: 83FE3D2C58384AF955F542CF524C4F30 Accuracy: -m0
Conclusion: CDDA 100%
Signature: EFA53A44FBB9AF340983FEA181F735C0F372E209
FILE: 09. Reanimate.flac
Size: 44183240 Hash: D67FD6D9EFA4B1C3EB501845120FDE11 Accuracy: -m0
Conclusion: CDDA 100%
Signature: 819C9BE318D85945F45F6EF0328557A67D2A6D6C
FILE: 08. Demonize.flac
Size: 42733730 Hash: F88BC9F48D63489C0BE0F4201DB469D9 Accuracy: -m0
Conclusion: CDDA 100%
Signature: EDB86085E1527682FB959C190C66F074467B1AE8
FILE: 07. Septic Shock.flac
Size: 42033373 Hash: 364469E0190294C735C7DF296A0876E5 Accuracy: -m0
Conclusion: CDDA 100%
Signature: 813F6430B2F2764F4FFAAE47E1E841CBA7705E00
FILE: 06. Polarity.flac
Size: 42244906 Hash: A80AD3424FABCAD94D84486AD295D55E Accuracy: -m0
Conclusion: CDDA 100%
Signature: 0D0F86BC482D393AAEA2C7B1A8F960B5C1111753
FILE: 05. Crystal Lines.flac
Size: 48254573 Hash: 25744BD8C59DC1891F9EAC2801E8DE3E Accuracy: -m0
Conclusion: CDDA 99%
Signature: 38ECC6E3941E07413BEAC72E16231E58A4346AC2
FILE: 04. Violent Skin.flac
Size: 46158635 Hash: 43C5FAE4D7521A3E85B2197A5FEBDAFA Accuracy: -m0
Conclusion: CDDA 100%
Signature: 45DDB8A76C080A93086C84A8C31B31FB7CD222F8
FILE: 03. Player.flac
Size: 41457683 Hash: F5C6FC78156A15D886F539A9211FBD83 Accuracy: -m0
Conclusion: CDDA 100%
Signature: BD18137E5C267C2292699EA7384F03491FE37F04
FILE: 02. Stimulant.flac
Size: 42635680 Hash: F2B02CBC4C212DD44C6F85BDB363DB4C Accuracy: -m0
Conclusion: CDDA 100%
Signature: A2CDFEAA32786BE7B436025CEA2B90D8D6EE82D8
FILE: 01. Process Of Elimination.flac
Size: 36415823 Hash: 4CDBD5C792CAA151C566AE7A16074335 Accuracy: -m0
Conclusion: CDDA 99%
Signature: C60DEC49EAD9EC77EC1D8EFE9BF0608468EA23E7

Год выпуска: 2010
Продолжительность: 01:14:27+01:09:35
Треклист:

CD1 Process of Elimination
01. Process Of Elimination (04:42)
02. Stimulant (05:35)
03. Player (05:22)
04. Violent Skin (05:55)
05. Crystal Lines (05:43)
06. Polarity (06:49)
07. Septic Shock (05:30)
08. Demonize (05:34)
09. Reanimate (05:19)
10. Set On Fire (05:02)
11. Automation And Dissent (05:27)
12. Dead Time (04:28)
13. Automation And Dissent (Zeller Remix) (04:07)
14. Polarity (Aesthetic Perfection Remix) (04:54)

CD2 Remixes
01. Septic Shock (Remixed By Sleep Clinic) (05:17)
02. Automation And Dissent (Remixed By Detune-X) (04:36)
03. Automation And Dissent (Remixed By Liquid Mercury) (05:47)
04. Violent Skin (Remixed By Wuornos Aileen) (05:54)
05. Process Of Elimination (Remixed By Fractured Transmission) (03:57)
06. Process Of Elimination (Remixed By Geistform) (05:03)
07. Set On Fire (Remixed By Chaos/Order) (05:25)
08. Stolen Memories (Remixed By Noorglo) (04:57)
09. Septic Shock (Remixed By SANdBLASTING) (05:17)
10. Septic Shock (Remixed By Replogen) (04:19)
11. Asphyxiate (Remixed By P•A•L) (04:27)
12. Killer Instinct (Remixed By xotox) (03:25)
13. Demonize (Tribal Anima Mix) (05:57)
14. Crystal Lines (Astoria Mix) (05:14)

Exact Audio Copy V1.3 from 2. September 2016

EAC extraction logfile from 25. January 2017, 21:57

Cervello Elettronico / BiPolar (CD1: Process of Elimination)

Used drive : LITE-ON LTR-52327S Adapter: 1 ID: 1

Read mode : Secure
Utilize accurate stream : Yes
Defeat audio cache : Yes
Make use of C2 pointers : No

Read offset correction : 6
Overread into Lead-In and Lead-Out : No
Fill up missing offset samples with silence : Yes
Delete leading and trailing silent blocks : No
Null samples used in CRC calculations : Yes
Used interface : Native Win32 interface for Win NT & 2000
Gap handling : Appended to previous track

Used output format : User Defined Encoder
Selected bitrate : 1024 kBit/s
Quality : High
Add ID3 tag : No
Command line compressor : C:\flac\win64\flac.exe
Additional command line options : -8 -V -T "ARTIST=%artist%" -T "TITLE=%title%" -T "ALBUM=%albumtitle%" -T "DATE=%year%" -T "TRACKNUMBER=%tracknr%" -T "GENRE=%genre%" -T "PERFORMER=%albuminterpret%" -T "COMPOSER=%composer%" %haslyrics%--tag-from-file=LYRICS="%lyricsfile%"%haslyrics% -T "ALBUMARTIST=%albumartist%" -T "DISCNUMBER=%cdnumber%" -T "TOTALDISCS=%totalcds%" -T "TOTALTRACKS=%numtracks%" -T "COMMENT=%comment%" %source% -o %dest%

TOC of the extracted CD

Track | Start | Length | Start sector | End sector
---------------------------------------------------------
1 | 0:00.00 | 4:42.22 | 0 | 21171
2 | 4:42.22 | 5:35.02 | 21172 | 46298
3 | 10:17.24 | 5:22.14 | 46299 | 70462
4 | 15:39.38 | 5:54.49 | 70463 | 97061
5 | 21:34.12 | 5:43.00 | 97062 | 122786
6 | 27:17.12 | 6:48.68 | 122787 | 153454
7 | 34:06.05 | 5:30.13 | 153455 | 178217
8 | 39:36.18 | 5:34.35 | 178218 | 203302
9 | 45:10.53 | 5:19.26 | 203303 | 227253
10 | 50:30.04 | 5:02.16 | 227254 | 249919
11 | 55:32.20 | 5:26.53 | 249920 | 274422
12 | 60:58.73 | 4:28.29 | 274423 | 294551
13 | 65:27.27 | 4:06.74 | 294552 | 313075
14 | 69:34.26 | 4:54.19 | 313076 | 335144

Track 1

Filename D:\CDRIP\Cervello Elettronico - BiPolar (Limited Edition 2CD) (2010) [FLAC]\CD1 - Process of Elimination\01 - Process of Elimination.wav

Pre-gap length 0:00:02.00

Peak level 98.9 %
Extraction speed 2.1 X
Track quality 100.0 %
Test CRC 5139EE98
Copy CRC 5139EE98
Accurately ripped (confidence 5) [BBD48610] (AR v2)
Copy OK

Track 2

Filename D:\CDRIP\Cervello Elettronico - BiPolar (Limited Edition 2CD) (2010) [FLAC]\CD1 - Process of Elimination\02 - Stimulant.wav

Peak level 91.2 %
Extraction speed 2.2 X
Track quality 100.0 %
Test CRC CF5711DB
Copy CRC CF5711DB
Accurately ripped (confidence 5) [702F3AB7] (AR v2)
Copy OK

Track 3

Filename D:\CDRIP\Cervello Elettronico - BiPolar (Limited Edition 2CD) (2010) [FLAC]\CD1 - Process of Elimination\03 - Player.wav

Peak level 99.9 %
Extraction speed 2.2 X
Track quality 100.0 %
Test CRC DBD72352
Copy CRC DBD72352
Accurately ripped (confidence 5) [0CBF3752] (AR v2)
Copy OK

Track 4

Filename D:\CDRIP\Cervello Elettronico - BiPolar (Limited Edition 2CD) (2010) [FLAC]\CD1 - Process of Elimination\04 - Violent Skin.wav

Peak level 99.9 %
Extraction speed 2.2 X
Track quality 100.0 %
Test CRC 2F8E83D3
Copy CRC 2F8E83D3
Accurately ripped (confidence 5) [C481D725] (AR v2)
Copy OK

Track 5

Filename D:\CDRIP\Cervello Elettronico - BiPolar (Limited Edition 2CD) (2010) [FLAC]\CD1 - Process of Elimination\05 - Crystal Lines.wav

Peak level 98.9 %
Extraction speed 2.2 X
Track quality 100.0 %
Test CRC 4F6770AA
Copy CRC 4F6770AA
Accurately ripped (confidence 5) [C4458187] (AR v2)
Copy OK

Track 6

Filename D:\CDRIP\Cervello Elettronico - BiPolar (Limited Edition 2CD) (2010) [FLAC]\CD1 - Process of Elimination\06 - Polarity.wav

Peak level 88.1 %
Extraction speed 2.3 X
Track quality 100.0 %
Test CRC 6C5F30D7
Copy CRC 6C5F30D7
Accurately ripped (confidence 5) [8DF7907A] (AR v2)
Copy OK

Track 7

Filename D:\CDRIP\Cervello Elettronico - BiPolar (Limited Edition 2CD) (2010) [FLAC]\CD1 - Process of Elimination\07 - Septic Shock.wav

Peak level 98.9 %
Extraction speed 2.2 X
Track quality 100.0 %
Test CRC 84338D53
Copy CRC 84338D53
Accurately ripped (confidence 5) [35074F6F] (AR v2)
Copy OK

Track 8

Filename D:\CDRIP\Cervello Elettronico - BiPolar (Limited Edition 2CD) (2010) [FLAC]\CD1 - Process of Elimination\08 - Demonize.wav

Peak level 99.9 %
Extraction speed 2.2 X
Track quality 100.0 %
Test CRC E68D015F
Copy CRC E68D015F
Accurately ripped (confidence 5) [F6D1864A] (AR v2)
Copy OK

Track 9

Filename D:\CDRIP\Cervello Elettronico - BiPolar (Limited Edition 2CD) (2010) [FLAC]\CD1 - Process of Elimination\09 - Reanimate.wav

Peak level 99.9 %
Extraction speed 2.0 X
Track quality 99.9 %
Test CRC D20D6BCD
Copy CRC D20D6BCD
Accurately ripped (confidence 5) [A9567139] (AR v2)
Copy OK

Track 10

Filename D:\CDRIP\Cervello Elettronico - BiPolar (Limited Edition 2CD) (2010) [FLAC]\CD1 - Process of Elimination\10 - Set on Fire.wav

Peak level 99.9 %
Extraction speed 2.2 X
Track quality 100.0 %
Test CRC FF84B44B
Copy CRC FF84B44B
Accurately ripped (confidence 5) [227FC233] (AR v2)
Copy OK

Track 11

Filename D:\CDRIP\Cervello Elettronico - BiPolar (Limited Edition 2CD) (2010) [FLAC]\CD1 - Process of Elimination\11 - Automation and Dissent.wav

Peak level 98.9 %
Extraction speed 2.2 X
Track quality 100.0 %
Test CRC 2919B1C4
Copy CRC 2919B1C4
Accurately ripped (confidence 5) [DD26CEDD] (AR v2)
Copy OK

Track 12

Filename D:\CDRIP\Cervello Elettronico - BiPolar (Limited Edition 2CD) (2010) [FLAC]\CD1 - Process of Elimination\12 - Dead Time.wav

Peak level 100.0 %
Extraction speed 2.2 X
Track quality 100.0 %
Test CRC 5764C8B3
Copy CRC 5764C8B3
Accurately ripped (confidence 5) [3A0AE550] (AR v2)
Copy OK

Track 13

Filename D:\CDRIP\Cervello Elettronico - BiPolar (Limited Edition 2CD) (2010) [FLAC]\CD1 - Process of Elimination\13 - Automation and Dissent (Zeller Remix).wav

Peak level 100.0 %
Extraction speed 1.9 X
Track quality 99.9 %
Test CRC B9ED1712
Copy CRC B9ED1712
Accurately ripped (confidence 5) [24C2F820] (AR v2)
Copy OK

Track 14

Filename D:\CDRIP\Cervello Elettronico - BiPolar (Limited Edition 2CD) (2010) [FLAC]\CD1 - Process of Elimination\14 - Polarity (Aesthetic Perfection Remix).wav

Peak level 100.0 %
Extraction speed 2.2 X
Track quality 100.0 %
Test CRC 7EA910DC
Copy CRC 7EA910DC
Accurately ripped (confidence 5) [FD29A916] (AR v2)
Copy OK

All tracks accurately ripped

No errors occurred

End of status report

---- CUETools DB Plugin V2.1.6

[CTDB TOCID: PXHOUHt__o5JIrVKQb0.M4Ibxls-] found
Submit result: PXHOUHt__o5JIrVKQb0.M4Ibxls- has been confirmed
Track | CTDB Status
1 | (11/11) Accurately ripped
2 | (11/11) Accurately ripped
3 | (11/11) Accurately ripped
4 | (11/11) Accurately ripped
5 | (11/11) Accurately ripped
6 | (11/11) Accurately ripped
7 | (11/11) Accurately ripped
8 | (10/11) Accurately ripped
9 | (11/11) Accurately ripped
10 | (11/11) Accurately ripped
11 | (10/11) Accurately ripped
12 | (11/11) Accurately ripped
13 | (11/11) Accurately ripped
14 | ( 9/11) Accurately ripped, or (2/11) differs in 4404 samples @04:53:72-04:54:03

==== Log checksum 9983FBC61475094875C3AF683728EFBFA1C0ACEBBFD75C85D1753DEE45A3B764 ====
---------------------------------------------------------------------------------------------------------------------------------------------------

Exact Audio Copy V1.3 from 2. September 2016

EAC extraction logfile from 25. January 2017, 22:18

Cervello Elettronico / BiPolar (CD2 - Remixes)

Used drive : LITE-ON LTR-52327S Adapter: 1 ID: 1

Read mode : Secure
Utilize accurate stream : Yes
Defeat audio cache : Yes
Make use of C2 pointers : No

Read offset correction : 6
Overread into Lead-In and Lead-Out : No
Fill up missing offset samples with silence : Yes
Delete leading and trailing silent blocks : No
Null samples used in CRC calculations : Yes
Used interface : Native Win32 interface for Win NT & 2000
Gap handling : Appended to previous track

Used output format : User Defined Encoder
Selected bitrate : 1024 kBit/s
Quality : High
Add ID3 tag : No
Command line compressor : C:\flac\win64\flac.exe
Additional command line options : -8 -V -T "ARTIST=%artist%" -T "TITLE=%title%" -T "ALBUM=%albumtitle%" -T "DATE=%year%" -T "TRACKNUMBER=%tracknr%" -T "GENRE=%genre%" -T "PERFORMER=%albuminterpret%" -T "COMPOSER=%composer%" %haslyrics%--tag-from-file=LYRICS="%lyricsfile%"%haslyrics% -T "ALBUMARTIST=%albumartist%" -T "DISCNUMBER=%cdnumber%" -T "TOTALDISCS=%totalcds%" -T "TOTALTRACKS=%numtracks%" -T "COMMENT=%comment%" %source% -o %dest%

TOC of the extracted CD

Track | Start | Length | Start sector | End sector
---------------------------------------------------------
1 | 0:00.00 | 5:16.68 | 0 | 23767
2 | 5:16.68 | 4:36.03 | 23768 | 44470
3 | 9:52.71 | 5:46.55 | 44471 | 70475
4 | 15:39.51 | 5:53.69 | 70476 | 97019
5 | 21:33.45 | 3:57.17 | 97020 | 114811
6 | 25:30.62 | 5:02.56 | 114812 | 137517
7 | 30:33.43 | 5:24.65 | 137518 | 161882
8 | 35:58.33 | 4:56.40 | 161883 | 184122
9 | 40:54.73 | 5:16.68 | 184123 | 207890
10 | 46:11.66 | 4:18.43 | 207891 | 227283
11 | 50:30.34 | 4:26.43 | 227284 | 247276
12 | 54:57.02 | 3:25.36 | 247277 | 262687
13 | 58:22.38 | 5:57.31 | 262688 | 289493
14 | 64:19.69 | 5:14.23 | 289494 | 313066

Track 1

Filename D:\CDRIP\Cervello Elettronico - BiPolar (Limited Edition 2CD) (2010) [FLAC]\CD2 - Remixes\01 - Septic Shock (Remixed by Sleep Clinic).wav

Pre-gap length 0:00:02.00

Peak level 100.0 %
Extraction speed 6.2 X
Track quality 100.0 %
Test CRC 0B69E411
Copy CRC 0B69E411
Cannot be verified as accurate (confidence 3) [2C77ABA3], AccurateRip returned [5937DAAE] (AR v2)
Copy OK

Track 2

Filename D:\CDRIP\Cervello Elettronico - BiPolar (Limited Edition 2CD) (2010) [FLAC]\CD2 - Remixes\02 - Automation and Dissent (Remixed by Detune-X).wav

Peak level 100.0 %
Extraction speed 6.7 X
Track quality 100.0 %
Test CRC 7558ADBA
Copy CRC 7558ADBA
Cannot be verified as accurate (confidence 3) [31CEB3A9], AccurateRip returned [1DA61B5B] (AR v2)
Copy OK

Track 3

Filename D:\CDRIP\Cervello Elettronico - BiPolar (Limited Edition 2CD) (2010) [FLAC]\CD2 - Remixes\03 - Automation and Dissent (Remixed by Liquid Mercury).wav

Peak level 100.0 %
Extraction speed 7.4 X
Track quality 100.0 %
Test CRC 681A3B79
Copy CRC 681A3B79
Cannot be verified as accurate (confidence 3) [D9CE366A], AccurateRip returned [E2B13D81] (AR v2)
Copy OK

Track 4

Filename D:\CDRIP\Cervello Elettronico - BiPolar (Limited Edition 2CD) (2010) [FLAC]\CD2 - Remixes\04 - Violent Skin (Remixed by Wuornos Aileen).wav

Peak level 100.0 %
Extraction speed 7.4 X
Track quality 99.9 %
Test CRC F7FF6E43
Copy CRC F7FF6E43
Cannot be verified as accurate (confidence 3) [E5E24666], AccurateRip returned [F0BB9A30] (AR v2)
Copy OK

Track 5

Filename D:\CDRIP\Cervello Elettronico - BiPolar (Limited Edition 2CD) (2010) [FLAC]\CD2 - Remixes\05 - Process of Elimination (Remixed by Fractured Transmission).wav

Peak level 100.0 %
Extraction speed 8.0 X
Track quality 100.0 %
Test CRC 17DDAA64
Copy CRC 17DDAA64
Cannot be verified as accurate (confidence 3) [CC044078], AccurateRip returned [97058B52] (AR v2)
Copy OK

Track 6

Filename D:\CDRIP\Cervello Elettronico - BiPolar (Limited Edition 2CD) (2010) [FLAC]\CD2 - Remixes\06 - Process of Elimination (Remixed by Geistform).wav

Peak level 100.0 %
Extraction speed 8.0 X
Track quality 99.9 %
Test CRC 21B6FF93
Copy CRC 21B6FF93
Cannot be verified as accurate (confidence 3) [4F9B2A7D], AccurateRip returned [9DA61ECA] (AR v2)
Copy OK

Track 7

Filename D:\CDRIP\Cervello Elettronico - BiPolar (Limited Edition 2CD) (2010) [FLAC]\CD2 - Remixes\07 - Set on Fire (Remixed by Chaos,Order).wav

Peak level 100.0 %
Extraction speed 9.3 X
Track quality 100.0 %
Test CRC 4FEBBF60
Copy CRC 4FEBBF60
Cannot be verified as accurate (confidence 3) [2FD8DE7F], AccurateRip returned [B01D3F58] (AR v2)
Copy OK

Track 8

Filename D:\CDRIP\Cervello Elettronico - BiPolar (Limited Edition 2CD) (2010) [FLAC]\CD2 - Remixes\08 - Stolen Memories (Remixed by Noorglo).wav

Peak level 100.0 %
Extraction speed 9.5 X
Track quality 100.0 %
Test CRC 1019AD43
Copy CRC 1019AD43
Cannot be verified as accurate (confidence 3) [7390EDBE], AccurateRip returned [9A61116C] (AR v2)
Copy OK

Track 9

Filename D:\CDRIP\Cervello Elettronico - BiPolar (Limited Edition 2CD) (2010) [FLAC]\CD2 - Remixes\09 - Septic Shock (Remixed by SANdBLASTING).wav

Peak level 100.0 %
Extraction speed 10.0 X
Track quality 100.0 %
Test CRC D76AF70D
Copy CRC D76AF70D
Cannot be verified as accurate (confidence 3) [05723CD3], AccurateRip returned [44600DAF] (AR v2)
Copy OK

Track 10

Filename D:\CDRIP\Cervello Elettronico - BiPolar (Limited Edition 2CD) (2010) [FLAC]\CD2 - Remixes\10 - Septic Shock (Remixed by Replogen).wav

Peak level 100.0 %
Extraction speed 10.2 X
Track quality 100.0 %
Test CRC 30BD74E4
Copy CRC 30BD74E4
Cannot be verified as accurate (confidence 3) [04142454], AccurateRip returned [9B9C9016] (AR v2)
Copy OK

Track 11

Filename D:\CDRIP\Cervello Elettronico - BiPolar (Limited Edition 2CD) (2010) [FLAC]\CD2 - Remixes\11 - Asphyxiate (Remixed by P.A.L).wav

Peak level 100.0 %
Extraction speed 9.4 X
Track quality 99.9 %
Test CRC 0C20E828
Copy CRC 0C20E828
Cannot be verified as accurate (confidence 3) [1A95F6FE], AccurateRip returned [334BD56E] (AR v2)
Copy OK

Track 12

Filename D:\CDRIP\Cervello Elettronico - BiPolar (Limited Edition 2CD) (2010) [FLAC]\CD2 - Remixes\12 - Killer Instinct (Remixed by Xotox).wav

Peak level 89.1 %
Extraction speed 9.1 X
Track quality 99.9 %
Test CRC E898B0AE
Copy CRC E898B0AE
Cannot be verified as accurate (confidence 3) [3FF05BBE], AccurateRip returned [248C05A3] (AR v2)
Copy OK

Track 13

Filename D:\CDRIP\Cervello Elettronico - BiPolar (Limited Edition 2CD) (2010) [FLAC]\CD2 - Remixes\13 - Demonize (Tribal Anima Mix).wav

Peak level 100.0 %
Extraction speed 11.2 X
Track quality 100.0 %
Test CRC AD201C5B
Copy CRC AD201C5B
Cannot be verified as accurate (confidence 3) [5D3E5DA8], AccurateRip returned [8D802766] (AR v2)
Copy OK

Track 14

Filename D:\CDRIP\Cervello Elettronico - BiPolar (Limited Edition 2CD) (2010) [FLAC]\CD2 - Remixes\14 - Crystal Lines (Astoria Mix).wav

Peak level 100.0 %
Extraction speed 11.2 X
Track quality 100.0 %
Test CRC 8EAA22CE
Copy CRC 8EAA22CE
Cannot be verified as accurate (confidence 3) [3D2C17E3], AccurateRip returned [65A18972] (AR v2)
Copy OK

No tracks could be verified as accurate
You may have a different pressing from the one(s) in the database

No errors occurred

End of status report

---- CUETools DB Plugin V2.1.6

[CTDB TOCID: B5HvoRkXKV_JnTmkc4cVHUvdeTw-] found
Submit result: B5HvoRkXKV_JnTmkc4cVHUvdeTw- has been confirmed
Track | CTDB Status
1 | (7/7) Accurately ripped
2 | (7/7) Accurately ripped
3 | (7/7) Accurately ripped
4 | (7/7) Accurately ripped
5 | (7/7) Accurately ripped
6 | (7/7) Accurately ripped
7 | (7/7) Accurately ripped
8 | (7/7) Accurately ripped
9 | (7/7) Accurately ripped
10 | (7/7) Accurately ripped
11 | (5/7) Accurately ripped
12 | (6/7) Accurately ripped
13 | (6/7) Accurately ripped
14 | (6/7) Accurately ripped

==== Log checksum D3024FAC3C683C208777F41F1A5E0AAB846CAB98C0F4FC8265F8B46937C203E2 ====


REM GENRE Industrial
REM DATE 2010
REM DISCID CE11740E
REM COMMENT "ExactAudioCopy v1.3"
PERFORMER "Cervello Elettronico"
TITLE "BiPolar (CD1: Process of Elimination)"
REM COMPOSER ""
FILE "01 - Process of Elimination.wav" WAVE
TRACK 01 AUDIO
TITLE "Process of Elimination"
PERFORMER "Cervello Elettronico"
REM COMPOSER ""
INDEX 01 00:00:00
FILE "02 - Stimulant.wav" WAVE
TRACK 02 AUDIO
TITLE "Stimulant"
PERFORMER "Cervello Elettronico"
REM COMPOSER ""
INDEX 01 00:00:00
FILE "03 - Player.wav" WAVE
TRACK 03 AUDIO
TITLE "Player"
PERFORMER "Cervello Elettronico"
REM COMPOSER ""
INDEX 01 00:00:00
FILE "04 - Violent Skin.wav" WAVE
TRACK 04 AUDIO
TITLE "Violent Skin"
PERFORMER "Cervello Elettronico"
REM COMPOSER ""
INDEX 01 00:00:00
FILE "05 - Crystal Lines.wav" WAVE
TRACK 05 AUDIO
TITLE "Crystal Lines"
PERFORMER "Cervello Elettronico"
REM COMPOSER ""
INDEX 01 00:00:00
FILE "06 - Polarity.wav" WAVE
TRACK 06 AUDIO
TITLE "Polarity"
PERFORMER "Cervello Elettronico"
REM COMPOSER ""
INDEX 01 00:00:00
FILE "07 - Septic Shock.wav" WAVE
TRACK 07 AUDIO
TITLE "Septic Shock"
PERFORMER "Cervello Elettronico"
REM COMPOSER ""
INDEX 01 00:00:00
FILE "08 - Demonize.wav" WAVE
TRACK 08 AUDIO
TITLE "Demonize"
PERFORMER "Cervello Elettronico"
REM COMPOSER ""
INDEX 01 00:00:00
FILE "09 - Reanimate.wav" WAVE
TRACK 09 AUDIO
TITLE "Reanimate"
PERFORMER "Cervello Elettronico"
REM COMPOSER ""
INDEX 01 00:00:00
FILE "10 - Set on Fire.wav" WAVE
TRACK 10 AUDIO
TITLE "Set on Fire"
PERFORMER "Cervello Elettronico"
REM COMPOSER ""
INDEX 01 00:00:00
FILE "11 - Automation and Dissent.wav" WAVE
TRACK 11 AUDIO
TITLE "Automation and Dissent"
PERFORMER "Cervello Elettronico"
REM COMPOSER ""
INDEX 01 00:00:00
FILE "12 - Dead Time.wav" WAVE
TRACK 12 AUDIO
TITLE "Dead Time"
PERFORMER "Cervello Elettronico"
REM COMPOSER ""
INDEX 01 00:00:00
FILE "13 - Automation and Dissent (Zeller Remix).wav" WAVE
TRACK 13 AUDIO
TITLE "Automation and Dissent (Zeller Remix)"
PERFORMER "Cervello Elettronico"
REM COMPOSER ""
INDEX 01 00:00:00
FILE "14 - Polarity (Aesthetic Perfection Remix).wav" WAVE
TRACK 14 AUDIO
TITLE "Polarity (Aesthetic Perfection Remix)"
PERFORMER "Cervello Elettronico"
REM COMPOSER ""
INDEX 01 00:00:00
------------------------------------------------------------------

REM GENRE Industrial
REM DATE 2010
REM DISCID C5104E0E
REM COMMENT "ExactAudioCopy v1.3"
PERFORMER "Cervello Elettronico"
TITLE "BiPolar (CD2 - Remixes)"
REM COMPOSER ""
FILE "01 - Septic Shock (Remixed by Sleep Clinic).wav" WAVE
TRACK 01 AUDIO
TITLE "Septic Shock (Remixed by Sleep Clinic)"
PERFORMER "Cervello Elettronico"
REM COMPOSER ""
INDEX 01 00:00:00
FILE "02 - Automation and Dissent (Remixed by Detune-X).wav" WAVE
TRACK 02 AUDIO
TITLE "Automation and Dissent (Remixed by Detune-X)"
PERFORMER "Cervello Elettronico"
REM COMPOSER ""
INDEX 01 00:00:00
FILE "03 - Automation and Dissent (Remixed by Liquid Mercury).wav" WAVE
TRACK 03 AUDIO
TITLE "Automation and Dissent (Remixed by Liquid Mercury)"
PERFORMER "Cervello Elettronico"
REM COMPOSER ""
INDEX 01 00:00:00
FILE "04 - Violent Skin (Remixed by Wuornos Aileen).wav" WAVE
TRACK 04 AUDIO
TITLE "Violent Skin (Remixed by Wuornos Aileen)"
PERFORMER "Cervello Elettronico"
REM COMPOSER ""
INDEX 01 00:00:00
FILE "05 - Process of Elimination (Remixed by Fractured Transmission).wav" WAVE
TRACK 05 AUDIO
TITLE "Process of Elimination (Remixed by Fractured Transmission)"
PERFORMER "Cervello Elettronico"
REM COMPOSER ""
INDEX 01 00:00:00
FILE "06 - Process of Elimination (Remixed by Geistform).wav" WAVE
TRACK 06 AUDIO
TITLE "Process of Elimination (Remixed by Geistform)"
PERFORMER "Cervello Elettronico"
REM COMPOSER ""
INDEX 01 00:00:00
FILE "07 - Set on Fire (Remixed by Chaos,Order).wav" WAVE
TRACK 07 AUDIO
TITLE "Set on Fire (Remixed by Chaos/Order)"
PERFORMER "Cervello Elettronico"
REM COMPOSER ""
INDEX 01 00:00:00
FILE "08 - Stolen Memories (Remixed by Noorglo).wav" WAVE
TRACK 08 AUDIO
TITLE "Stolen Memories (Remixed by Noorglo)"
PERFORMER "Cervello Elettronico"
REM COMPOSER ""
INDEX 01 00:00:00
FILE "09 - Septic Shock (Remixed by SANdBLASTING).wav" WAVE
TRACK 09 AUDIO
TITLE "Septic Shock (Remixed by SANdBLASTING)"
PERFORMER "Cervello Elettronico"
REM COMPOSER ""
INDEX 01 00:00:00
FILE "10 - Septic Shock (Remixed by Replogen).wav" WAVE
TRACK 10 AUDIO
TITLE "Septic Shock (Remixed by Replogen)"
PERFORMER "Cervello Elettronico"
REM COMPOSER ""
INDEX 01 00:00:00
FILE "11 - Asphyxiate (Remixed by P.A.L).wav" WAVE
TRACK 11 AUDIO
TITLE "Asphyxiate (Remixed by P.A.L)"
PERFORMER "Cervello Elettronico"
REM COMPOSER ""
INDEX 01 00:00:00
FILE "12 - Killer Instinct (Remixed by Xotox).wav" WAVE
TRACK 12 AUDIO
TITLE "Killer Instinct (Remixed by Xotox)"
PERFORMER "Cervello Elettronico"
REM COMPOSER ""
INDEX 01 00:00:00
FILE "13 - Demonize (Tribal Anima Mix).wav" WAVE
TRACK 13 AUDIO
TITLE "Demonize (Tribal Anima Mix)"
PERFORMER "Cervello Elettronico"
REM COMPOSER ""
INDEX 01 00:00:00
FILE "14 - Crystal Lines (Astoria Mix).wav" WAVE
TRACK 14 AUDIO
TITLE "Crystal Lines (Astoria Mix)"
PERFORMER "Cervello Elettronico"
REM COMPOSER ""
INDEX 01 00:00:00

Год выпуска: 2013
Продолжительность: 01:06:36
Треклист:

01. Last Words (05:45)
02. Bad Ground (05:22)
03. Vertebrae (05:28)
04. Instant Trauma (04:29)
05. Impact (05:19)
06. She's Got Damage (05:03)
07. Down The Line (04:07)
08. Animalism (04:50)
09. Pulse (04:55)
10. Source Code (05:23)
11. People Are Still People (05:38)
12. Too Much Too Fast (05:20)
13. Splinter (04:57)

Exact Audio Copy V1.0 beta 3 from 29. August 2011

EAC extraction logfile from 20. February 2014, 22:30

Cervello Elettronico / Anima Meccanica

Used drive : HL-DT-STBDDVDRW CH10LS28 Adapter: 1 ID: 0

Read mode : Secure
Utilize accurate stream : Yes
Defeat audio cache : Yes
Make use of C2 pointers : No

Read offset correction : 667
Overread into Lead-In and Lead-Out : No
Fill up missing offset samples with silence : Yes
Delete leading and trailing silent blocks : No
Null samples used in CRC calculations : Yes
Used interface : Native Win32 interface for Win NT & 2000
Gap handling : Appended to previous track

Used output format : User Defined Encoder
Selected bitrate : 1024 kBit/s
Quality : High
Add ID3 tag : No
Command line compressor : C:\Program Files (x86)\Exact Audio Copy\Flac\flac.exe
Additional command line options : -8 -V -T "ARTIST=%artist%" -T "TITLE=%title%" -T "ALBUM=%albumtitle%" -T "DATE=%year%" -T "TRACKNUMBER=%tracknr%" -T "GENRE=%genre%" -T "PERFORMER=%albuminterpret%" -T "COMPOSER=%composer%" %haslyrics%--tag-from-file=LYRICS="%lyricsfile%"%haslyrics% -T "ALBUMARTIST=%albumartist%" -T "DISCNUMBER=%cdnumber%" -T "TOTALDISCS=%totalcds%" -T "TOTALTRACKS=%numtracks%" -T "COMMENT=%comment%" %source% -o %dest%

TOC of the extracted CD

Track | Start | Length | Start sector | End sector
---------------------------------------------------------
1 | 0:00.00 | 5:44.69 | 0 | 25868
2 | 5:44.69 | 5:21.73 | 25869 | 50016
3 | 11:06.67 | 5:27.74 | 50017 | 74615
4 | 16:34.66 | 4:28.57 | 74616 | 94772
5 | 21:03.48 | 5:19.13 | 94773 | 118710
6 | 26:22.61 | 5:03.16 | 118711 | 141451
7 | 31:26.02 | 4:07.01 | 141452 | 159977
8 | 35:33.03 | 4:50.35 | 159978 | 181762
9 | 40:23.38 | 4:54.42 | 181763 | 203854
10 | 45:18.05 | 5:22.64 | 203855 | 228068
11 | 50:40.69 | 5:37.47 | 228069 | 253390
12 | 56:18.41 | 5:19.56 | 253391 | 277371
13 | 61:38.22 | 4:56.71 | 277372 | 299642

Track 1

Filename D:\Rips\Cervello Elettronico - Anima Meccanica - 2013 - FLAC\01 Last Words.wav

Pre-gap length 0:00:02.00

Peak level 96.5 %
Extraction speed 1.2 X
Track quality 99.9 %
Test CRC 52C69A0C
Copy CRC 52C69A0C
Track not present in AccurateRip database
Copy OK

Track 2

Filename D:\Rips\Cervello Elettronico - Anima Meccanica - 2013 - FLAC\02 Bad Ground.wav

Pre-gap length 0:00:02.00

Peak level 99.6 %
Extraction speed 1.5 X
Track quality 100.0 %
Test CRC 9D57DB9C
Copy CRC 9D57DB9C
Track not present in AccurateRip database
Copy OK

Track 3

Filename D:\Rips\Cervello Elettronico - Anima Meccanica - 2013 - FLAC\03 Vertebrae.wav

Pre-gap length 0:00:02.00

Peak level 99.8 %
Extraction speed 1.5 X
Track quality 99.9 %
Test CRC 7920374C
Copy CRC 7920374C
Track not present in AccurateRip database
Copy OK

Track 4

Filename D:\Rips\Cervello Elettronico - Anima Meccanica - 2013 - FLAC\04 Instant Trauma.wav

Pre-gap length 0:00:02.00

Peak level 96.5 %
Extraction speed 1.8 X
Track quality 100.0 %
Test CRC 3D0CF372
Copy CRC 3D0CF372
Track not present in AccurateRip database
Copy OK

Track 5

Filename D:\Rips\Cervello Elettronico - Anima Meccanica - 2013 - FLAC\05 Impact.wav

Pre-gap length 0:00:02.00

Peak level 99.8 %
Extraction speed 1.9 X
Track quality 100.0 %
Test CRC 7A2899FF
Copy CRC 7A2899FF
Track not present in AccurateRip database
Copy OK

Track 6

Filename D:\Rips\Cervello Elettronico - Anima Meccanica - 2013 - FLAC\06 She's Got Damage.wav

Pre-gap length 0:00:02.00

Peak level 99.9 %
Extraction speed 2.0 X
Track quality 100.0 %
Test CRC 61A98BC8
Copy CRC 61A98BC8
Track not present in AccurateRip database
Copy OK

Track 7

Filename D:\Rips\Cervello Elettronico - Anima Meccanica - 2013 - FLAC\07 Down The Line.wav

Pre-gap length 0:00:02.00

Peak level 99.9 %
Extraction speed 1.8 X
Track quality 99.9 %
Test CRC 60D7F5E4
Copy CRC 60D7F5E4
Track not present in AccurateRip database
Copy OK

Track 8

Filename D:\Rips\Cervello Elettronico - Anima Meccanica - 2013 - FLAC\08 Animalism.wav

Pre-gap length 0:00:02.00

Peak level 99.9 %
Extraction speed 2.0 X
Track quality 99.9 %
Test CRC C7794BEF
Copy CRC C7794BEF
Track not present in AccurateRip database
Copy OK

Track 9

Filename D:\Rips\Cervello Elettronico - Anima Meccanica - 2013 - FLAC\09 Pulse.wav

Pre-gap length 0:00:02.00

Peak level 99.0 %
Extraction speed 2.3 X
Track quality 100.0 %
Test CRC FF815514
Copy CRC FF815514
Track not present in AccurateRip database
Copy OK

Track 10

Filename D:\Rips\Cervello Elettronico - Anima Meccanica - 2013 - FLAC\10 Source Code.wav

Pre-gap length 0:00:02.00

Peak level 99.9 %
Extraction speed 2.4 X
Track quality 100.0 %
Test CRC D73C42C2
Copy CRC D73C42C2
Track not present in AccurateRip database
Copy OK

Track 11

Filename D:\Rips\Cervello Elettronico - Anima Meccanica - 2013 - FLAC\11 People Are Still People.wav

Pre-gap length 0:00:02.00

Peak level 99.9 %
Extraction speed 2.3 X
Track quality 99.9 %
Test CRC 69E26A91
Copy CRC 69E26A91
Track not present in AccurateRip database
Copy OK

Track 12

Filename D:\Rips\Cervello Elettronico - Anima Meccanica - 2013 - FLAC\12 Too Much Too Fast.wav

Pre-gap length 0:00:02.00

Peak level 99.9 %
Extraction speed 2.6 X
Track quality 100.0 %
Test CRC DB0C73E2
Copy CRC DB0C73E2
Track not present in AccurateRip database
Copy OK

Track 13

Filename D:\Rips\Cervello Elettronico - Anima Meccanica - 2013 - FLAC\13 Splinter.wav

Pre-gap length 0:00:02.00

Peak level 99.3 %
Extraction speed 2.7 X
Track quality 100.0 %
Test CRC 919D0E2F
Copy CRC 919D0E2F
Track not present in AccurateRip database
Copy OK

None of the tracks are present in the AccurateRip database

No errors occurred

End of status report

---- CUETools DB Plugin V2.1.3

[CTDB TOCID: bbtAJes.y3stjnXIoPQfVLDJ_vg-] found, Submit result: bbtAJes.y3stjnXIoPQfVLDJ_vg- has been confirmed
[2a66cc9b] (3/3) Accurately ripped

==== Log checksum 243E1A06BD9204FAE689A402A4F82437E73636C2A96B174E932EB744A889E866 ====


REM GENRE Industrial
REM DATE 2013
REM DISCID B80F9B0D
REM COMMENT "ExactAudioCopy v1.0b3"
PERFORMER "Cervello Elettronico"
TITLE "Anima Meccanica"
FILE "01 Last Words.wav" WAVE
TRACK 01 AUDIO
TITLE "Last Words"
PERFORMER "Cervello Elettronico"
INDEX 01 00:00:00
TRACK 02 AUDIO
TITLE "Bad Ground"
PERFORMER "Cervello Elettronico"
INDEX 00 05:42:69
FILE "02 Bad Ground.wav" WAVE
INDEX 01 00:00:00
TRACK 03 AUDIO
TITLE "Vertebrae"
PERFORMER "Cervello Elettronico"
INDEX 00 05:19:73
FILE "03 Vertebrae.wav" WAVE
INDEX 01 00:00:00
TRACK 04 AUDIO
TITLE "Instant Trauma"
PERFORMER "Cervello Elettronico"
INDEX 00 05:25:74
FILE "04 Instant Trauma.wav" WAVE
INDEX 01 00:00:00
TRACK 05 AUDIO
TITLE "Impact"
PERFORMER "Cervello Elettronico"
INDEX 00 04:26:57
FILE "05 Impact.wav" WAVE
INDEX 01 00:00:00
TRACK 06 AUDIO
TITLE "She's Got Damage"
PERFORMER "Cervello Elettronico"
INDEX 00 05:17:13
FILE "06 She's Got Damage.wav" WAVE
INDEX 01 00:00:00
TRACK 07 AUDIO
TITLE "Down The Line"
PERFORMER "Cervello Elettronico"
INDEX 00 05:01:16
FILE "07 Down The Line.wav" WAVE
INDEX 01 00:00:00
TRACK 08 AUDIO
TITLE "Animalism"
PERFORMER "Cervello Elettronico"
INDEX 00 04:05:01
FILE "08 Animalism.wav" WAVE
INDEX 01 00:00:00
TRACK 09 AUDIO
TITLE "Pulse"
PERFORMER "Cervello Elettronico"
INDEX 00 04:48:35
FILE "09 Pulse.wav" WAVE
INDEX 01 00:00:00
TRACK 10 AUDIO
TITLE "Source Code"
PERFORMER "Cervello Elettronico"
INDEX 00 04:52:42
FILE "10 Source Code.wav" WAVE
INDEX 01 00:00:00
TRACK 11 AUDIO
TITLE "People Are Still People"
PERFORMER "Cervello Elettronico"
INDEX 00 05:20:64
FILE "11 People Are Still People.wav" WAVE
INDEX 01 00:00:00
TRACK 12 AUDIO
TITLE "Too Much Too Fast"
PERFORMER "Cervello Elettronico"
INDEX 00 05:35:47
FILE "12 Too Much Too Fast.wav" WAVE
INDEX 01 00:00:00
TRACK 13 AUDIO
TITLE "Splinter"
PERFORMER "Cervello Elettronico"
INDEX 00 05:17:56
FILE "13 Splinter.wav" WAVE
INDEX 01 00:00:00

Год выпуска: 2014
Продолжительность: 00:30:57
Треклист:

01. Last Words (Hesitation) (08:57)
02. Instant Trauma (Human Nature) (04:21)
03. Vertebrae (Nervoso Version) (05:17)
04. Up The Line (06:56)
05. Bad Ground (Native Hex) (05:26)

Exact Audio Copy V1.0 beta 3 from 29. August 2011

EAC extraction logfile from 19. October 2014, 17:44

Cervello Elettronico / Dance Meccanica

Used drive : HL-DT-STBDDVDRW CH10LS28 Adapter: 1 ID: 0

Read mode : Secure
Utilize accurate stream : Yes
Defeat audio cache : Yes
Make use of C2 pointers : No

Read offset correction : 667
Overread into Lead-In and Lead-Out : No
Fill up missing offset samples with silence : Yes
Delete leading and trailing silent blocks : No
Null samples used in CRC calculations : Yes
Used interface : Native Win32 interface for Win NT & 2000
Gap handling : Appended to previous track

Used output format : User Defined Encoder
Selected bitrate : 1024 kBit/s
Quality : High
Add ID3 tag : No
Command line compressor : C:\Program Files (x86)\Exact Audio Copy\Flac\flac.exe
Additional command line options : -8 -V -T "ARTIST=%artist%" -T "TITLE=%title%" -T "ALBUM=%albumtitle%" -T "DATE=%year%" -T "TRACKNUMBER=%tracknr%" -T "GENRE=%genre%" -T "PERFORMER=%albuminterpret%" -T "COMPOSER=%composer%" %haslyrics%--tag-from-file=LYRICS="%lyricsfile%"%haslyrics% -T "ALBUMARTIST=%albumartist%" -T "DISCNUMBER=%cdnumber%" -T "TOTALDISCS=%totalcds%" -T "TOTALTRACKS=%numtracks%" -T "COMMENT=%comment%" %source% -o %dest%

TOC of the extracted CD

Track | Start | Length | Start sector | End sector
---------------------------------------------------------
1 | 0:00.00 | 8:56.56 | 0 | 40255
2 | 8:56.56 | 4:21.10 | 40256 | 59840
3 | 13:17.66 | 5:17.17 | 59841 | 83632
4 | 18:35.08 | 6:55.38 | 83633 | 114795
5 | 25:30.46 | 5:25.69 | 114796 | 139239

Track 1

Filename D:\Rips\Cervello Elettronico - Dance Meccanica - 2014 - FLAC\01 Last Words (Hesitation).wav

Pre-gap length 0:00:02.00

Peak level 100.0 %
Extraction speed 1.4 X
Track quality 100.0 %
Test CRC E92A7A09
Copy CRC E92A7A09
Track not present in AccurateRip database
Copy OK

Track 2

Filename D:\Rips\Cervello Elettronico - Dance Meccanica - 2014 - FLAC\02 Instant Trauma (Human Nature).wav

Pre-gap length 0:00:01.76

Peak level 100.0 %
Extraction speed 1.6 X
Track quality 100.0 %
Test CRC 77BA8F05
Copy CRC 77BA8F05
Track not present in AccurateRip database
Copy OK

Track 3

Filename D:\Rips\Cervello Elettronico - Dance Meccanica - 2014 - FLAC\03 Vertebrae (Nervoso Version).wav

Pre-gap length 0:00:01.76

Peak level 100.0 %
Extraction speed 1.7 X
Track quality 100.0 %
Test CRC 2B62EEF4
Copy CRC 2B62EEF4
Track not present in AccurateRip database
Copy OK

Track 4

Filename D:\Rips\Cervello Elettronico - Dance Meccanica - 2014 - FLAC\04 Up the Line.wav

Pre-gap length 0:00:01.76

Peak level 100.0 %
Extraction speed 2.0 X
Track quality 100.0 %
Test CRC D8D202A2
Copy CRC D8D202A2
Track not present in AccurateRip database
Copy OK

Track 5

Filename D:\Rips\Cervello Elettronico - Dance Meccanica - 2014 - FLAC\05 Bad Ground (Native Hex).wav

Pre-gap length 0:00:01.76

Peak level 100.0 %
Extraction speed 2.1 X
Track quality 100.0 %
Test CRC C959C39D
Copy CRC C959C39D
Track not present in AccurateRip database
Copy OK

None of the tracks are present in the AccurateRip database

No errors occurred

End of status report

---- CUETools DB Plugin V2.1.3

[CTDB TOCID: t0lyo9HQ.jv13O9vfLVgp5IpVOI-] disk not present in database, Submit result: t0lyo9HQ.jv13O9vfLVgp5IpVOI- has been uploaded

==== Log checksum F7F18CC24235361C565AC6F52D5B4447D1B5DD658A73452590E713B2BF6E5378 ====


REM GENRE industrial
REM DATE 2014
REM DISCID 40074005
REM COMMENT "ExactAudioCopy v1.0b3"
PERFORMER "Cervello Elettronico"
TITLE "Dance Meccanica"
FILE "01 Last Words (Hesitation).wav" WAVE
TRACK 01 AUDIO
TITLE "Last Words (Hesitation)"
PERFORMER "Cervello Elettronico"
INDEX 01 00:00:00
TRACK 02 AUDIO
TITLE "Instant Trauma (Human Nature)"
PERFORMER "Cervello Elettronico"
INDEX 00 08:54:74
FILE "02 Instant Trauma (Human Nature).wav" WAVE
INDEX 01 00:00:00
TRACK 03 AUDIO
TITLE "Vertebrae (Nervoso Version)"
PERFORMER "Cervello Elettronico"
INDEX 00 04:19:28
FILE "03 Vertebrae (Nervoso Version).wav" WAVE
INDEX 01 00:00:00
TRACK 04 AUDIO
TITLE "Up the Line"
PERFORMER "Cervello Elettronico"
INDEX 00 05:15:35
FILE "04 Up the Line.wav" WAVE
INDEX 01 00:00:00
TRACK 05 AUDIO
TITLE "Bad Ground (Native Hex)"
PERFORMER "Cervello Elettronico"
INDEX 00 06:53:56
FILE "05 Bad Ground (Native Hex).wav" WAVE
INDEX 01 00:00:00

Год выпуска: 2016
Продолжительность: 00:51:15
Треклист:

01. Prophetic Vision (02:14)
02. Logical Fears (05:10)
03. Divider (05:19)
04. Tone Deaf (05:08)
05. Black Matter (04:31)
06. Stand Your Ground (04:25)
07. Memory Loss (04:30)
08. Choose Right (05:04)
09. Spacial Differences (05:10)
10. Retracted Statements (05:06)
11. Movement (04:38)

-----------------------

DON'T MODIFY THIS FILE

-----------------------

PERFORMER: auCDtect Task Manager, ver. 1.6.0 RC1 build 1.6.0.1
Copyright (c) 2008-2010 y-soft. All rights reserved
http://y-soft.org

ANALYZER: auCDtect: CD records authenticity detector, version 0.8.2
Copyright (c) 2004 Oleg Berngardt. All rights reserved.
Copyright (c) 2004 Alexander Djourik. All rights reserved.

FILE: 11. Movement.flac
Size: 32497459 Hash: 1801A729728BA67711689EB5CC3122C7 Accuracy: -m0
Conclusion: CDDA 100%
Signature: 89CC11BD1AF6C69B0BB404CB1CEB45714DF0CF15
FILE: 10. Retracted Statements.flac
Size: 35651889 Hash: F390B2A43EF4135FF69DBED060E43898 Accuracy: -m0
Conclusion: CDDA 100%
Signature: 3530968FBD3AEB24AEB376BEC146CFF5665B6C81
FILE: 09. Spacial Differences.flac
Size: 36503953 Hash: AF354E5DB403039E9F2C09270B8E3BB4 Accuracy: -m0
Conclusion: CDDA 100%
Signature: FF0C24F386F2205BE72F6DD063EAA61C5C84170D
FILE: 08. Choose Right.flac
Size: 39015191 Hash: BB6ED4EED4DBFB8486A0F28A976B2FDA Accuracy: -m0
Conclusion: CDDA 100%
Signature: 643C16D79EA79A24846A5EFDF610A2589C657E3A
FILE: 07. Memory Loss.flac
Size: 35614490 Hash: 8C94861DD02923757C3CD9263261F114 Accuracy: -m0
Conclusion: CDDA 100%
Signature: F17133DB144AFC20D69C087C24AB47C17903A4C5
FILE: 06. Stand Your Ground.flac
Size: 32267100 Hash: 21E5EAAEEABCD1345DF190F486F1D14E Accuracy: -m0
Conclusion: CDDA 100%
Signature: 65B1C2BE5019DD446F364EEE5471266F66F89080
FILE: 05. Black Matter.flac
Size: 31249131 Hash: 16CFA088F28DB7C4F67C85E1C14FA613 Accuracy: -m0
Conclusion: CDDA 100%
Signature: FDF86B17476F2C03F603BC02229FB08E0C06B423
FILE: 04. Tone Deaf.flac
Size: 34927800 Hash: 795C11ECB08D7B48A0BBEF518DA6A762 Accuracy: -m0
Conclusion: CDDA 100%
Signature: D52D41ED458ADC1BE5DE3FFB46988AB26677962B
FILE: 03. Divider.flac
Size: 33302105 Hash: C34FD7BED8DC48C69F54E17327104239 Accuracy: -m0
Conclusion: CDDA 100%
Signature: 9818DC3A269F171005E596C8B0EBA974505FB8C7
FILE: 02. Logical Fears.flac
Size: 38879693 Hash: E28A6C4478BDA06DAE4ADEE31476C618 Accuracy: -m0
Conclusion: CDDA 100%
Signature: 62906AA3507E288E5EF92DA6698B64B7799FFDED
FILE: 01. Prophetic Vision.flac
Size: 11787492 Hash: D54326625EB77EF3C63D8D25764100AB Accuracy: -m0
Conclusion: CDDA 62%
Signature: F35170996389DEB2FC18D59D3C55D228282CEB66

Время раздачи: 12/7
[NNMClub.to]_Cervello Elettronico FLAC.torrent
 Торрент: Серебряная раздча  Зарегистрирован
 
Зарегистрируйтесь и скачайте торрент!
31,8 KB

Примагнититься
 Зарегистрирован:   09 Июл 2019 03:00:43
 Размер:   3,78 GB  (
 Рейтинг:    (Голосов: 9)
 Поблагодарили:   54
 Проверка:   Оформление проверено модератором 09 Июл 2019 03:01:11
Как cкачать  ·  Как раздать  ·  Правильно оформить  ·  Поднять ратио!  
vilator ®
Модератор Музыки
RG Music
 
Стаж: 10 лет 5 мес.
Сообщений: 9435
Ratio: 176,275
Поблагодарили: 191434
100%
Откуда: Minsk
pirates.png
Обновление:
2007 Negate The Instigator (WEB 2013)
2017 Live in Brooklyn at Synthicide 2017 (WEB)
vilator ®
Модератор Музыки
RG Music
 
Стаж: 10 лет 5 мес.
Сообщений: 9435
Ratio: 176,275
Поблагодарили: 191434
100%
Откуда: Minsk
pirates.png
Обновление:
2019 Top Ded Ctr (WEB)
Показать сообщения:   
Начать новую тему   Ответить на тему    Торрент-трекер NNM-Club -> Electronic -> Experimental, Industrial, EBM, Dark Electro (Lossless) Часовой пояс: GMT + 3
Страница 1 из 1