Классический форум-трекер
canvas not supported
Нас вместе: 4 081 559

Близкие контакты третьей степени / Close Encounters of the Third Kind (1977) BDRemux [1080p]


 
 
RSS
Начать новую тему   Ответить на тему    Торрент-трекер NNM-Club -> Классика кино и Старые фильмы до 90-х -> Зарубежная Классика (HD, UHD, UHD-LQ, 3D)
Автор Сообщение
ElektrAа ®
Модератор Видео
Uploader 500+
Стаж: 8 лет 9 мес.
Сообщений: 2772
Ratio: 5366,489
Раздал: 506,8 TB
Поблагодарили: 382316
100%
Откуда: Южная столица
ukraine.gif
Близкие контакты третьей степени / Close Encounters of the Third Kind (1977) BDRemux
Год выпуска: 1977
Производство: США, Columbia Pictures Corporation, EMI Films Ltd., Julia Phillips and Michael Phillips Productions
Жанр: Фантастика, Драма, Приключения
Перевод: Профессиональный многоголосый, авторский
Субтитры: Вшитые (отключаемые)
Язык субтитров: Русские, английские

Режиссер: Стивен Спилберг
Актеры: Ричард Дрейфусс, Франсуа Трюффо, Тери Гарр, Мелинда Диллон, Боб Бэлабан, Уоррен Дж. Кеммерлинг, Робертс Блоссом, Филип Доддс, Кэри Гуффи, Шоун Бишоп, Эдриэнн Кэмпбелл, Джастин Дрейфусс, Лэнс Хенриксен, Мэрилл Коннали, Джордж ДиЧенцо, Эми Дугласс, Александр Локвуд, Джин Динарски, Мэри Гэфри, Норман Бартольд, Йозеф Зоммер, Роджер Эрнест, Карл Уэзерс, Ф.Дж. О’Нил, Фил Доддс, Рэнди Хэрман, Хэл Барвуд, Мэттью Роббинс, Дэвид Андерсон, Ричард Л. Хоукинс, Крэйг Шрив, Билл Турман, Рой Э. Ричардс, Джин Рейдер, Эуменио Бланко, Дэниэл Нуньес

Описание фильма:
Сбои в подаче электроэнергии, возвращение из ниоткуда самолетов, исчезнувших в 1945 году, обескураживают ученых. Наименее скептичные люди науки расценивают эти явления, как прямое доказательство существования разумной инопланетной формы жизни. Рой Неари едет в пустыню, где были найдены самолеты, чтобы провести собственное расследование. Ночью его автомобиль застревает на шоссе. Неожиданно в темном небе появляется загадочный источник яркого света. Всего на мгновенье Неари попадает под его лучи, несущие информацию из далеких миров. После контакта с внеземной цивилизацией Рой оказывается во власти странных видений, и это происходит не только с ним…



Продолжительность: 02:17:06
Качество видео: BDRemux

Видеокодек: MPEG-4 AVC/H.264
Битрейт видео: ~22,4 Мбит/с
Размер кадра: 1920x1080

Аудио 1: Русский AC3, 6 ch, 448 Кбит/с | Профессиональный многоголосый
Аудио 2: Русский DTS, 6 ch, 1510 Кбит/с | Авторский одноголосый (Визгунов)
Аудио 3: Английский DTS, 6 ch, 1510 Кбит/с)
На этапе планирования Стивен Спилберг тщательно изучал различные доклады, всевозможные сведения о НЛО, встречался с людьми, которые, так или иначе, сталкивались с неведомыми человечеству явлениями.
Первоначальный вариант фильма написал Пол Шредер, но Стивен Спилберг так основательно его изменил, что сценарист потребовал убрать своё имя из титров.
На роль Роя Нери пробовались Стив Маккуин, Дастин Хоффман и Джин Хэкман.
На роль учёного Клода Лакомба, специалиста по НЛО, был приглашён знаменитый французский режиссёр Франсуа Трюффо.
Одно из рабочих названий картины — «Внимание на небо» (Watch the Skies) — финальные слова другого фантастического фильма «Существо из другого мира» (The Thing From Another World, 1951). Эта же фраза звучит и в фильме: из телевизора в момент пробуждения Роя Нери.

Особое упоминание Национального совета обозревателей за спецэффекты, «Давид» Донателло» за лучшую иностранную ленту в Италии, «Грэмми» за музыку к фильму, в 2007 году включён в Национальный регистр фильмов

Сатурн, 2008 год
Номинации (1):
Лучшее специальное DVD-издание — «30th Anniversary»

Сатурн, 2002 год
Номинации (1):
Лучшее DVD-издание классического фильма

Британская академия, 1979 год
Победитель (1):

Лучшая работа художника-постановщика
Номинации (8):
Лучший фильм
Лучшая мужская роль второго плана (Франсуа Трюффо)
Лучший режиссер (Стивен Спилберг)
Лучший сценарий
Лучшая работа оператора
Лучший звук
Лучший монтаж
Премия имени Энтони Эскуита за достижения в создании музыки к фильму

Оскар, 1978 год
Победитель (2):

Лучшая работа оператора
Награда за особые достижения — «за монтаж звуковых эффектов»
Номинации (7):
Лучшая женская роль второго плана (Мелинда Диллон)
Лучший режиссер (Стивен Спилберг)
Лучшие декорации
Лучший звук
Лучший монтаж
Лучшие визуальные эффекты
Лучший оригинальный саундтрек

Золотой глобус, 1978 год
Номинации (4):
Лучший фильм (драма)
Лучший режиссер (Стивен Спилберг)
Лучший сценарий
Лучший саундтрек

Сатурн, 1978 год
Победитель (3):

Лучший режиссер (Стивен Спилберг)
Лучший сценарий
Лучшая музыка
Номинации (4):
Лучший научно-фантастический фильм
Лучший актер (Ричард Дрейфусс)
Лучшая актриса (Мелинда Диллон)
Лучшие спецэффекты

General
Complete name : E:\Close Encounters (Remux).mkv
Format : Matroska
File size : 25.3 GiB
Duration : 2h 17mn
Overall bit rate : 26.3 Mbps
Encoded date : UTC 2008-09-02 12:55:38
Writing application : mkvmerge v2.1.0 ('Another Place To Fall') built on Aug 19 2007 13:40:07
Writing library : libebml v0.7.7 + libmatroska v0.8.1

Video
ID : 1
Format : AVC
Format/Info : Advanced Video Codec
Format profile : High@L4.1
Format settings, CABAC : Yes
Format settings, ReFrames : 2 frames
Muxing mode : Container profile=Unknown@4.1
Codec ID : V_MPEG4/ISO/AVC
Duration : 2h 17mn
Bit rate : 22.4 Mbps
Width : 1 920 pixels
Height : 1 080 pixels
Display aspect ratio : 16:9
Frame rate : 23.976 fps
Resolution : 8 bits
Colorimetry : 4:2:0
Scan type : Progressive
Bits/(Pixel*Frame) : 0.450
Stream size : 21.4 GiB (85%)
Title : Close Encounters of the Third Kind
Language : English

Audio #1
ID : 2
Format : AC-3
Format/Info : Audio Coding 3
Codec ID : A_AC3
Duration : 2h 17mn
Bit rate mode : Constant
Bit rate : 448 Kbps
Channel(s) : 6 channels
Channel positions : Front: L C R, Surround: L R, LFE
Sampling rate : 48.0 KHz
Stream size : 440 MiB (2%)
Title : AC3 448 kbps
Language : Russian

Audio #2
ID : 3
Format : DTS
Format/Info : Digital Theater Systems
Codec ID : A_DTS
Duration : 2h 17mn
Bit rate mode : Constant
Bit rate : 1 510 Kbps
Channel(s) : 6 channels
Channel positions : Front: L C R, Surround: L R, LFE
Sampling rate : 48.0 KHz
Resolution : 24 bits
Stream size : 1.45 GiB (6%)
Title : DTS 1.5 mbps (Vizgunov)
Language : Russian

Audio #3
ID : 4
Format : DTS
Format/Info : Digital Theater Systems
Codec ID : A_DTS
Duration : 2h 17mn
Bit rate mode : Constant
Bit rate : 1 510 Kbps
Channel(s) : 6 channels
Channel positions : Front: L C R, Surround: L R, LFE
Sampling rate : 48.0 KHz
Resolution : 24 bits
Stream size : 1.45 GiB (6%)
Title : DTS 1.5 mbps
Language : English

Text #1
ID : 5
Format : UTF-8
Codec ID : S_TEXT/UTF8
Codec ID/Info : UTF-8 Plain Text
Language : Russian

Text #2
ID : 6
Format : UTF-8
Codec ID : S_TEXT/UTF8
Codec ID/Info : UTF-8 Plain Text
Language : English

Скриншоты:


Время раздачи: 24/7 - круглосуточно
Благодарности, а также конструктивное обсуждение раздачи способствует ее долгожительству и вдохновляет автора на создание новых.
[NNM-Club.me]_Close Encounters (Remux).mkv.torrent
 Торрент: Платиновая раздача  Зарегистрирован
 
Скачать


Примагнититься
 Зарегистрирован:   19 Апр 2014 22:03:47
 Размер:   25,3 GB  (
 Рейтинг:   4,8 (Голосов: 62)
 Поблагодарили:   218
 Проверка:   Оформление проверено модератором 20 Апр 2014 00:09:42
Как cкачать  ·  Как раздать  ·  Правильно оформить  ·  Поднять ратио!  

_________________
«Правила оформления релизов в разделе Видео» | После исправлений - в ЛС
ivanika1802
Стаж: 6 лет 11 мес.
Сообщений: 19
Ratio: 50,296
100%
russia.gif
Спасибо!
ABDURAXA
Стаж: 5 лет 10 мес.
Сообщений: 21
Ratio: 23,088
Раздал: 1,125 TB
100%
Откуда: Душанбе
tajikistan.gif
Супер ! =)
DomoviK35
Стаж: 6 лет 2 мес.
Сообщений: 28
Ratio: 1,377
100%
Откуда: Киев
ukraine.gif
Ещё такие старые фильмы есть в HD качестве? :мегашок:
xploser
Стаж: 10 лет 1 мес.
Сообщений: 593
Ratio: 14,231
Поблагодарили: 176
17.52%
не качаю так как фильм давно в коллекции , фильм шедевр .
ктсати , никто не помнит случаем название песни (точнее мелодии) Патрика Бернара (нью эйдж стиль) по мотивам мелодии из фильма (та что служит ключем для обмена языками) ?
TheBlackFox
Стаж: 6 лет 2 мес.
Сообщений: 400
Ratio: 28,968
Поблагодарили: 53
100%
ussr.gif
Целый фильм, ради концовки...
Хотя суть передана правильно и вроде хронология и логика событий не нарушена. :респект:

Добавлено спустя 2 минуты 11 секунд:

xploser

Может U96 - Dark Room Rituals ?
xploser
Стаж: 10 лет 1 мес.
Сообщений: 593
Ratio: 14,231
Поблагодарили: 176
17.52%
TheBl​ackFo​x​ не , не она , но тоже красивая мелодия.
Acropolis-s
Стаж: 6 лет
Сообщений: 147
Ratio: 29,919
100%
kazakhstan.gif
У кого есть в дубляже?
impart
Стаж: 9 лет 1 мес.
Сообщений: 122
Ratio: 6,252
11.5%
ukraine.gif
ребят, а есть кто на раздаче?
Показать сообщения:   
Начать новую тему   Ответить на тему    Торрент-трекер NNM-Club -> Классика кино и Старые фильмы до 90-х -> Зарубежная Классика (HD, UHD, UHD-LQ, 3D) Часовой пояс: GMT + 3
Страница 1 из 1