Классический форум-трекер
canvas not supported
Нас вместе: 4 081 559

Red Hot Chili Peppers: Live at Rock in Rio (2011) [1080i] HDTV


 
 
RSS
Начать новую тему   Ответить на тему    Торрент-трекер NNM-Club -> Театр и Музыкальное видео -> Концерты (HD, UHD, UHD-LQ)
Автор Сообщение
SNAUTS ®
Ценитель HD
Uploader 1000+
Стаж: 9 лет 5 мес.
Сообщений: 2112
Ratio: 70K
Поблагодарили: 139693
100%
Откуда: .. и только свежий космос
ussr.gif
Red Hot Chili Peppers: Live at Rock in Rio (2011) [1080i] HDTV

Исполнитель: Red Hot Chili Peppers
Оригинальное название: Live at Rock in Rio
Выпущено: Multishow HD
Год выпуска: 2011
Жанр: Alternative Rock, Funk Rock

Описание фильма:
Выступление Red Hot Chili Peppers на фестивале Rock In Rio 2011.

Треклист:
01. Monarchy Of Roses
02. Can't Stop
03. Charlie
04. Otherside
05. Look Around
06. Dani California
07. Under The Bridge
08. Factory Of Faith
09. Throw Away Your Television
10. Pea
11. The Adventures Of Rain Dance Maggie
12. Me And My Friends
13. Did I Let You Know
14. Higher Ground
15. Californication
16. By The Way
17. Around The World
18. Blood Sugar Sex Magik
19. Give It Away

Продолжительность: 01:42:16

Видеокодек: MPEG-4 AVC
Битрейт видео: ~ 10.6 Мбит/с
Размер кадра: 1920х1080i
Качество видео: HDTV

Аудио:
1. Dolby Digital Английскй 5.1 48 kHz 384 kbps
General
Unique ID : 285512910774039703617652464388443290683 (0xD6CBC953ED8C18D12EEB5E1CC6253C3B)
Complete name : D:\Red.Hot.Chili.Peppers.Live.at.Rock.in.Rio.2011.x264.HDTV.(1080i).mkv
Format : Matroska
File size : 8.02 GiB
Duration : 1h 42mn
Overall bit rate : 11.2 Mbps
Encoded date : UTC 2011-10-06 23:21:38
Writing application : gdsmux
Writing library : Haali DirectShow Matroska Muxer 1.11.96.14
Video #1
ID : 1
Format : AVC
Format/Info : Advanced Video Codec
Format profile : High@L4.0
Format settings, CABAC : Yes
Format settings, ReFrames : 4 frames
Format settings, GOP : M=2, N=22
Codec ID : V_MPEG4/ISO/AVC
Duration : 1h 42mn
Bit rate : 10.6 Mbps
Width : 1 920 pixels
Height : 1 080 pixels
Display aspect ratio : 16:9
Frame rate : 29.970 fps
Color space : YUV
Chroma subsampling : 4:2:0
Bit depth : 8 bits
Scan type : Interlaced
Bits/(Pixel*Frame) : 0.171
Stream size : 7.59 GiB (95%)
Title : PID 4163
Color primaries : BT.709-5, BT.1361, IEC 61966-2-4, SMPTE RP177
Transfer characteristics : BT.709-5, BT.1361
Matrix coefficients : BT.709-5, BT.1361, IEC 61966-2-4 709, SMPTE RP177
Audio #2
ID : 2
Format : AC-3
Format/Info : Audio Coding 3
Mode extension : CM (complete main)
Muxing mode : Header stripping
Codec ID : A_AC3
Duration : 1h 42mn
Bit rate mode : Constant
Bit rate : 384 Kbps
Channel(s) : 6 channels
Channel positions : Front: L C R, Side: L R, LFE
Sampling rate : 48.0 KHz
Bit depth : 16 bits
Compression mode : Lossy
Delay relative to video : 29ms
Stream size : 281 MiB (3%)
Title : PID 4161
Language : Portuguese
Скриншоты:

Раздача: 24/7
Не забываем говорить спасибо, Вам не сложно, а мне приятно)))
Прошу с раздачи не уходить! Скачал сам, дай и другим скачать!!!
Приятного просмотра)))
[NNM-Club.ru]_Red.Hot.Chili.Peppers.Live.at.Rock.in.Rio.2011.x264.HDTV.(1080i).mkv.torrent
 Торрент: Платиновая раздача  Зарегистрирован
 
Скачать


 Зарегистрирован:   03 Апр 2012 09:16:52
 Размер:   8,02 GB  (
 Рейтинг:   5 (Голосов: 21)
 Поблагодарили:   93
 Проверка:   Оформление проверено модератором 03 Апр 2012 10:11:27
Как cкачать  ·  Как раздать  ·  Правильно оформить  ·  Поднять ратио!  
isa0684
Стаж: 8 лет 3 мес.
Сообщений: 6
Ratio: 0,646
40%
класный концерт
Papa_Posadskiy
Стаж: 6 лет 11 мес.
Сообщений: 215
Ratio: 7,786
17.81%
Видео по качеству хорошее, звук калл. Убить мало такого звукорежиссёра !
Vasavchik
Uploader 100+
Стаж: 3 года 6 мес.
Сообщений: 16
Ratio: 1408,683
Раздал: 135,8 TB
100%
russia.gif
Ребзя, за неделю скачал 0%. :убится ап стену:
boroda20061
Стаж: 5 лет 8 мес.
Сообщений: 6
Ratio: 110,267
100%
Уважаемые обладатели данного концерта! Прошу выйти на раздачу! Спасибо!
zvezdoff
Uploader 300+
Стаж: 10 лет 6 мес.
Сообщений: 76
Ratio: 280,874
Раздал: 532,6 TB
78.59%
Откуда: Moscow
russia.gif
boroda20061
Присоединяюсь к просьбе спустя несколько лет :задумался:
koh_1
Стаж: 9 лет 3 мес.
Сообщений: 82
Ratio: 542,281
100%
ussr.gif
Разочарование...
До этого смотрел только один живой концерт РХЧП - Ирландия 2003.
Здесь вокал полный кал...

_________________
Alles wird sein gut..., auch wenn alles anders sein wird ...
Показать сообщения:   
Начать новую тему   Ответить на тему    Торрент-трекер NNM-Club -> Театр и Музыкальное видео -> Концерты (HD, UHD, UHD-LQ) Часовой пояс: GMT + 3
Страница 1 из 1