Классический форум-трекер
canvas not supported
Нас вместе: 4 082 102

Конан-варвар / Conan the Barbarian (1982) BDRip [720p]


 
 
RSS
Начать новую тему   Ответить на тему    Торрент-трекер NNM-Club -> Архив торрентов -> Архив Классики, Старого кино, Артхаус
Автор Сообщение
Sедой ®
Стаж: 9 лет 2 мес.
Сообщений: 3057
Ratio: 5117,534
Поблагодарили: 643750
100%
Откуда: Донецк
Конан-варвар / Conan the Barbarian (1982) BDRip [720p]
Русское название: Конан-варвар
Оригинальное название: Conan the Barbarian
Выпущено: США
Год выпуска: 1982
Жанр: Фэнтези, Боевик, Приключения

Описание фильма:
В детстве Конан стал свидетелем жестокого убийства своих родителей беспощадным Тулса Думом. Его обезумевшие от запаха крови солдаты разорили и сожгли до тла родную деревню Конана. Мальчик выростает в рабстве и превращается в обладающего неимоверной силой и мышечной массой непобедимого воина.Поклявшись отомстить за родителей он отправляется на поиски своего врага. Его путь полон невероятных приключений, отчаянных поединков, неожиданных встреч и опасностей.Конан с достоинством проходит все испытания, но сможет ли он победить в последней и самой опасной битве в его жизни, битве с непобедимым Тулса Думом?

Режиссер: Джон Милиус
Актеры: Арнольд Шварценеггер, Джеймс Эрл Джонс, Макс фон Сюдов, Сэндал Бергман, Бен Дэвидсон, Кассандра Гава, Джерри Лопес, Мако, Валери Кеннессен, Уильям Смит

Продолжительность: 02:10:31
Перевод: Многоголосый закадровый
Субтитры: Отсутствуют



Дата мировой премьеры: 15.03.1982
Дата выхода DVD релиза: 25.12.2008 «Двадцатый Век Фокс СНГ»
Pелиз на Blu-Ray: 07.07.2011 «Двадцатый Век Фокс СНГ»

Видеокодек: MPEG-4 AVC/H.264
Битрейт видео: ~2003 Kbps
Размер кадра: 1280 x 544
Качество видео: BDRip
Аудиокодек: AC3 5.1
Битрейт аудио: 384 Kbps
Общее
Уникальный идентификатор : 177768634339490988910948053754457294423 (0x85BCFE5CE11758B38C29A1D1F75F0657)
Полное имя : D:\Торренты\ФИЛЬМЫ торента\Conan.the.Barbarian.1982.BDRip [720p].mkv
Формат : Matroska
Размер файла : 2,18 Гбайт
Продолжительность : 2 ч. 10 м.
Общий поток : 2388 Кбит/сек
Программа кодирования : mkvmerge v4.0.0 ('The Stars were mine') сборка от Jun 6 2010 16:18:42
Библиотека кодирования : libebml v1.0.0 + libmatroska v1.0.0

Видео
Идентификатор : 2
Формат : AVC
Формат/Информация : Advanced Video Codec
Профиль формата : High@L4.1
Параметр CABAC формата : Да
Параметр ReFrames формата : 3 кадра
Идентификатор кодека : V_MPEG4/ISO/AVC
Продолжительность : 2 ч. 10 м.
Вид битрейта : Переменный
Битрейт : 2003 Кбит/сек
Максимальный битрейт : 14,0 Мбит/сек
Ширина : 1280 пикс.
Высота : 544 пикс.
Соотношение сторон : 2,35:1
Частота кадров : 23,976 кадр/сек
Цветовое пространство : YUV
Подвыборка цветности : 4:2:0
Битовая глубина : 8 бит
Тип развёртки : Прогрессивная
Бит/(Пиксели*Кадры) : 0.120
Размер потока : 1,78 Гбайт (82%)
Заголовок : h264
Библиотека кодирования : x264 core 115 r1995 c1e60b9
Настройки программы : cabac=1 / ref=2 / deblock=1:-1:-1 / analyse=0x3:0x113 / me=hex / subme=6 / psy=1 / psy_rd=1.00:0.15 / mixed_ref=1 / me_range=16 / chroma_me=1 / trellis=1 / 8x8dct=1 / cqm=0 / deadzone=21,11 / fast_pskip=1 / chroma_qp_offset=-3 / threads=3 / sliced_threads=0 / slices=4 / nr=0 / decimate=1 / interlaced=0 / bluray_compat=1 / constrained_intra=0 / bframes=3 / b_pyramid=1 / b_adapt=1 / b_bias=0 / direct=1 / weightb=1 / open_gop=1 / weightp=1 / keyint=24 / keyint_min=2 / scenecut=40 / intra_refresh=0 / rc_lookahead=24 / rc=2pass / mbtree=1 / bitrate=2003 / ratetol=1.0 / qcomp=0.60 / qpmin=0 / qpmax=51 / qpstep=4 / cplxblur=20.0 / qblur=0.5 / vbv_maxrate=14000 / vbv_bufsize=14000 / nal_hrd=vbr / ip_ratio=1.40 / aq=1:1.00
Язык : English

Аудио
Идентификатор : 1
Формат : AC-3
Формат/Информация : Audio Coding 3
Расширение режима : CM (complete main)
Идентификатор кодека : A_AC3
Продолжительность : 2 ч. 10 м.
Вид битрейта : Постоянный
Битрейт : 384 Кбит/сек
Каналы : 6 каналов
Расположение каналов : Front: L C R, Side: L R, LFE
Частота : 48,0 КГц
Битовая глубина : 16 бит
Метод сжатия : С потерями
Размер потока : 359 Мбайт (16%)
Заголовок : KINOMANIA

Скриншоты:

Время раздачи: 24/7 по возможности
[NNM-Club.ru]_Conan.the.Barbarian.1982.BDRip [720p].mkv.torrent
 Торрент: Платиновая раздача  Зарегистрирован
 
Скачать


Примагнититься
 Зарегистрирован:   29 Авг 2011 16:20:48
 Размер:   2,18 GB  (
 Рейтинг:   4,8 (Голосов: 77)
 Поблагодарили:   234
 Проверка:   Оформление проверено модератором 31 Авг 2011 00:41:50
Как cкачать  ·  Как раздать  ·  Правильно оформить  ·  Поднять ратио!  
pesnjar
Стаж: 9 лет 6 мес.
Сообщений: 315
Ratio: 2,031
100%
Первый фильм, который я посмотрел на VHS.
Спасибо.
monowor
Стаж: 9 лет 5 мес.
Сообщений: 197
Ratio: 7,906
100%
Откуда: Одесса
ukraine.gif
этот конан гораздо лучше нового
88dick
Стаж: 8 лет 4 мес.
Сообщений: 7
Ratio: 25,346
21.31%
monowor писал(а): Перейти к сообщению
этот конан гораздо лучше нового

согласен :недовольный:
pesnjar
Стаж: 9 лет 6 мес.
Сообщений: 315
Ratio: 2,031
100%
Перевод отсутствует 01.44.40 - 01.46.11.
Субтитров нет.
Stitch777
Стаж: 8 лет 3 мес.
Сообщений: 287
Ratio: 33,006
100%
вот это Конан так Конан а не какой то там Момоа
cepholopoid
Стаж: 9 лет
Сообщений: 12
Ratio: 1,11
100%
Присоединяюсь к мнениям!
Demon79
Стаж: 10 лет 7 мес.
Сообщений: 222
Ratio: 2
Раздал: 675 GB
Поблагодарили: 682
100%
russia.gif
Помогите скачать плиз!
Топик был перенесен из форума Старые Зарубежные Фильмы (HD*Rip/LQ, DVDRip, SATRip, VHSRip) в форум Архив Классики, Старого кино, Артхаус

Причина переноса: https://nnmclub.to/forum/viewtopic.php?t=1314493

Исправил релиз - напиши ЛС MAG3131, дав ссылку на релиз.
Если нет ответа 24 часа - нажми на кнопку "Обратить внимание модераторов".
Показать сообщения:   
Начать новую тему   Ответить на тему    Торрент-трекер NNM-Club -> Архив торрентов -> Архив Классики, Старого кино, Артхаус Часовой пояс: GMT + 3
Страница 1 из 1