Классический форум-трекер
canvas not supported
Нас вместе: 4 077 732

Айзек Азимов | Детектив Элайдж Бейли и робот Дэниел Оливо (2019) [M4B|AAC]


 
 
RSS
Начать новую тему   Ответить на тему    Торрент-трекер NNM-Club -> Аудио и Видео -> Аудиокниги (AAC)
Автор Сообщение
trybag ®
Стаж: 6 лет 6 мес.
Сообщений: 189
Ratio: 15,334
Поблагодарили: 5907
100%
Айзек Азимов | Детектив Элайдж Бейли и робот Дэниел Оливо
Автор: Айзек Азимов
Год: 2019
Жанр: Фантастика
Продолжительность: 44:43:36
Читает: Михаил Макушев
Издательство: Аудиокнига своими руками

Описание: Действие романов цикла происходит на фоне противостояния «космонитов» — жителей бывших космических колоний Земли, наслаждающихся комфортной и долгой жизнью на планетах-«внешних мирах» и придерживающихся крайнего индивидуализма, — и землян, жизнь которых осложнена последствиями перенаселения родной планеты — она проходит в гигантских городах-муравейниках.
Жизнь талантливого детектива Элайджа Бейли пришлась на кризисный период: время нарастания противоречий между Землёй и Внешними мирами. Для расследования убийства космонита, находившегося на Земле, ему в напарники прикомандирован необычный представитель внешних миров по имени Р. Дэниел Оливо, где «Р» означает робот.
От результатов этого и последующих расследований Бейли и его напарника зависит очень многое, вплоть до будущего цивилизации.

Формат: M4B
Аудиокодек: AAC
Битрейт: 64 kbps
Частота: 24,0 KHz
Разбивка на главы: есть
Вшитая обложка: есть
Музыкальное сопровождение: частично

«Мать-Земля» / Mother Earth (1949)
«Стальные пещеры» / The Caves of Steel (1954)
«Обнажённое солнце» / The Naked Sun (1956)
«Зеркальное отражение» / Mirror image [в другом переводе «Зеркальное отображение закона»] (1972)
«Роботы зари» / The Robots of Dawn [в других переводах «Роботы утренней зари», «Роботы рассвета»] (1983)
«Роботы и Империя» / Robots and Empire (1985)

Код: выделить все
Общее
Полное имя                               : Детектив Элайдж Бейли и робот Дэниел Оливо 1.m4b
Формат                                   : MPEG-4
Профиль формата                          : Apple audio with iTunes position
Идентификатор кодека                     : M4B  (M4B /mp42/isom)
Размер файла                             : 303 Мбайт
Продолжительность                        : 11 ч.
Режим общего битрейта                    : Переменный
Общий поток                              : 63,8 Кбит/сек
Альбом                                   : Детектив Элайдж Бейли и робот Дэниел Оливо
Альбом/Исполнитель                       : Айзек Азимов
Трек                                     : Детектив Элайдж Бейли и робот Дэниел Оливо 1
Трек/Положение                           : 1
Трек/Всего                               : 4
Исполнитель                              : Айзек Азимов
Композитор                               : Михаил Макушев
Жанр                                     : Фантастика
Дата записи                              : 2019
Дата кодирования                         : UTC 2019-07-15 14:10:40
Дата пометки                             : UTC 2019-07-15 18:24:37
Обложка                                  : Yes
art                                      : Айзек Азимов

Аудио
Идентификатор                            : 1
Формат                                   : AAC LC
Формат/Информация                        : Advanced Audio Codec Low Complexity
Идентификатор кодека                     : mp4a-40-2
Продолжительность                        : 11 ч.
Вид битрейта                             : Переменный
Битрейт                                  : 64,0 Кбит/сек
Максимальный битрейт                     : 75,2 Кбит/сек
Каналы                                   : 2 канала
Channel layout                           : L R
Частота                                  : 24,0 КГц
Частота кадров                           : 23,438 кадра/сек (1024 SPF)
Метод сжатия                             : С потерями
Размер потока                            : 299 Мбайт (99%)
Дата кодирования                         : UTC 2019-07-15 14:10:40
Дата пометки                             : UTC 2019-07-15 18:24:37
Menus                                    : 2

Меню
Идентификатор                            : 2
Идентификатор кодека                     : text
Продолжительность                        : 11 ч.
Язык                                     : English
Дата кодирования                         : UTC 2019-07-15 19:36:14
Дата пометки                             : UTC 2019-07-15 19:36:14
Menu For                                 : 1
00:00:00.000                             : 1949. Мать-Земля
01:44:34.175                             : 1953. Стальные пещеры. Глава 1. Разговор с комиссаром полиции
02:12:14.847                             : 1953. Стальные пещеры. Глава 2. Поездка на экспрессе
02:42:14.229                             : 1953. Стальные пещеры. Глава 3. Происшествие у обувного прилавка
03:01:55.754                             : 1953. Стальные пещеры. Глава 4. Знакомство с семьей детектива
03:31:09.226                             : 1953. Стальные пещеры. Глава 5. Анализ убийства
03:58:20.800                             : 1953. Стальные пещеры. Глава 6. Шёпот в комнате
04:14:16.405                             : 1953. Стальные пещеры. Глава 7. Посещение космотауна
04:45:02.677                             : 1953. Стальные пещеры. Глава 8. Спор из за робота
05:12:25.984                             : 1953. Стальные пещеры. Глава 9. Разъяснение космонита
05:44:01.962                             : 1953. Стальные пещеры. Глава 10. Вечер полицейского детектива
06:12:37.930                             : 1953. Стальные пещеры. Глава 11. Бегство из столовой
06:38:12.309                             : 1953. Стальные пещеры. Глава 12. Мнение эксперта
07:06:05.995                             : 1953. Стальные пещеры. Глава 13. Мнение машины
07:36:41.642                             : 1953. Стальные пещеры. Глава 14. Власть имени
08:02:34.197                             : 1953. Стальные пещеры. Глава 15. Арест заговорщика
08:26:17.856                             : 1953. Стальные пещеры. Глава 16. Мотивы преступления
08:52:59.904                             : 1953. Стальные пещеры. Глава 17. Конец проекта
09:16:27.861                             : 1953. Стальные пещеры. Глава 18. Конец расследования
09:47:02.315                             : 1956.Обнажённое солнце. Глава 1. Вопрос ждет ответа
10:15:04.277                             : 1956.Обнажённое солнце. Глава 2. Друзья встречаются
10:40:09.728                             : 1956.Обнажённое солнце. Глава 3. Имя произносится
Вид битрейта                             : VBR

Общее
Полное имя                               : Детектив Элайдж Бейли и робот Дэниел Оливо 2.m4b
Формат                                   : MPEG-4
Профиль формата                          : Apple audio with iTunes position
Идентификатор кодека                     : M4B  (M4B /mp42/isom)
Размер файла                             : 287 Мбайт
Продолжительность                        : 10 ч.
Режим общего битрейта                    : Переменный
Общий поток                              : 63,6 Кбит/сек
Альбом                                   : Детектив Элайдж Бейли и робот Дэниел Оливо
Альбом/Исполнитель                       : Айзек Азимов
Трек                                     : Детектив Элайдж Бейли и робот Дэниел Оливо 2
Трек/Положение                           : 2
Трек/Всего                               : 4
Исполнитель                              : Айзек Азимов
Композитор                               : Михаил Макушев
Жанр                                     : Фантастика
Дата записи                              : 2019
Дата кодирования                         : UTC 2019-07-15 14:28:48
Дата пометки                             : UTC 2019-07-15 18:24:47
Обложка                                  : Yes
art                                      : Айзек Азимов

Аудио
Идентификатор                            : 1
Формат                                   : AAC LC
Формат/Информация                        : Advanced Audio Codec Low Complexity
Идентификатор кодека                     : mp4a-40-2
Продолжительность                        : 10 ч.
Вид битрейта                             : Переменный
Битрейт                                  : 64,0 Кбит/сек
Максимальный битрейт                     : 72,5 Кбит/сек
Каналы                                   : 2 канала
Channel layout                           : L R
Частота                                  : 24,0 КГц
Частота кадров                           : 23,438 кадра/сек (1024 SPF)
Метод сжатия                             : С потерями
Размер потока                            : 283 Мбайт (99%)
Дата кодирования                         : UTC 2019-07-15 14:28:48
Дата пометки                             : UTC 2019-07-15 18:24:47
Menus                                    : 2

Меню
Идентификатор                            : 2
Идентификатор кодека                     : text
Продолжительность                        : 10 ч.
Язык                                     : English
Дата кодирования                         : UTC 2019-07-15 19:37:08
Дата пометки                             : UTC 2019-07-15 19:37:08
Menu For                                 : 1
00:00:00.000                             : 1956.Обнажённое солнце. Глава 4. Женщина появляется
00:17:51.445                             : 1956.Обнажённое солнце. Глава 5. Показания даются
00:36:02.773                             : 1956.Обнажённое солнце. Глава 6. Гипотеза отвергается
01:00:47.658                             : 1956.Обнажённое солнце. Глава 7. Доктор недоумевает
01:22:09.066                             : 1956.Обнажённое солнце. Глава 8. Космонит гневается
01:46:16.832                             : 1956.Обнажённое солнце. Глава 9. Робот капитулирует
02:05:07.327                             : 1956.Обнажённое солнце. Глава 10. Аналогия прослеживается
02:28:30.805                             : 1956.Обнажённое солнце. Глава 11. Ферма обследуется
02:50:34.965                             : 1956.Обнажённое солнце. Глава 12. Выстрел не попадает в цель
03:14:54.720                             : 1956.Обнажённое солнце. Глава 13. Роботехник усмиряется
03:32:15.914                             : 1956.Обнажённое солнце. Глава 14. Мотив выявляется
03:51:27.872                             : 1956.Обнажённое солнце. Глава 15. Портрет создается
04:16:53.546                             : 1956.Обнажённое солнце. Глава 16. Загадка разгадывается
04:38:12.522                             : 1956.Обнажённое солнце. Глава 17. Собрание созывается
05:03:15.455                             : 1956.Обнажённое солнце. Глава 18. Вопрос получает ответ
05:34:39.914                             : 1972. Зеркальное отражение
06:09:17.653                             : 1983. Роботы утренней зари. Глава 1. Бейли
06:58:36.885                             : 1983. Роботы утренней зари. Глава 2. Дэниел
07:49:24.736                             : 1983. Роботы утренней зари. Глава 3. Жискар
08:30:50.667                             : 1983. Роботы утренней зари. Глава 4. Фастольф
09:16:39.851                             : 1983. Роботы утренней зари. Глава 5. Дэниел и Жискар
Вид битрейта                             : VBR

Общее
Полное имя                               : Детектив Элайдж Бейли и робот Дэниел Оливо 3.m4b
Формат                                   : MPEG-4
Профиль формата                          : Apple audio with iTunes position
Идентификатор кодека                     : M4B  (M4B /mp42/isom)
Размер файла                             : 298 Мбайт
Продолжительность                        : 10 ч.
Режим общего битрейта                    : Переменный
Общий поток                              : 63,5 Кбит/сек
Альбом                                   : Детектив Элайдж Бейли и робот Дэниел Оливо
Альбом/Исполнитель                       : Айзек Азимов
Трек                                     : Детектив Элайдж Бейли и робот Дэниел Оливо 3
Трек/Положение                           : 3
Трек/Всего                               : 4
Исполнитель                              : Айзек Азимов
Композитор                               : Михаил Макушев
Жанр                                     : Фантастика
Дата записи                              : 2019
Дата кодирования                         : UTC 2019-07-15 14:53:14
Дата пометки                             : UTC 2019-07-15 18:24:55
Обложка                                  : Yes
art                                      : Айзек Азимов

Аудио
Идентификатор                            : 1
Формат                                   : AAC LC
Формат/Информация                        : Advanced Audio Codec Low Complexity
Идентификатор кодека                     : mp4a-40-2
Продолжительность                        : 10 ч.
Вид битрейта                             : Переменный
Битрейт                                  : 64,0 Кбит/сек
Максимальный битрейт                     : 77,0 Кбит/сек
Каналы                                   : 2 канала
Channel layout                           : L R
Частота                                  : 24,0 КГц
Частота кадров                           : 23,438 кадра/сек (1024 SPF)
Метод сжатия                             : С потерями
Размер потока                            : 293 Мбайт (99%)
Дата кодирования                         : UTC 2019-07-15 14:53:14
Дата пометки                             : UTC 2019-07-15 18:24:55
Menus                                    : 2

Меню
Идентификатор                            : 2
Идентификатор кодека                     : text
Продолжительность                        : 10 ч.
Язык                                     : English
Дата кодирования                         : UTC 2019-07-15 19:37:45
Дата пометки                             : UTC 2019-07-15 19:37:45
Menu For                                 : 1
00:00:00.000                             : 1983. Роботы утренней зари. Глава 6. Глэдия
01:05:41.162                             : 1983. Роботы утренней зари. Глава 7. Снова Фастольф
01:58:29.418                             : 1983. Роботы утренней зари. Глава 8. Василия
02:40:26.751                             : 1983. Роботы утренней зари. Глава 8. Фастольф и Василия
03:22:31.935                             : 1983. Роботы утренней зари. Глава 10. Снова Василия
03:58:00.447                             : 1983. Роботы утренней зари. Глава 11. Гремионис
04:32:30.975                             : 1983. Роботы утренней зари. Глава 12. Снова Гремионис
05:17:15.903                             : 1983. Роботы утренней зари. Глава 13. Амадиро
05:49:47.732                             : 1983. Роботы утренней зари. Глава 14. Снова Амадиро
06:44:50.602                             : 1983. Роботы утренней зари. Глава 15. Снова Дэниел и Жискар
07:27:53.215                             : 1983. Роботы утренней зари. Глава 16. Снова Глэдия
07:54:56.212                             : 1983. Роботы утренней зари. Глава 17. Председатель
08:42:28.266                             : 1983. Роботы утренней зари. Глава 18. Снова председатель
09:27:32.607                             : 1983. Роботы утренней зари. Глава 19. Снова Бейли
10:10:31.295                             : 1985. Роботы и Империя. Часть 1. Аврора. Глава1. Потомок
Вид битрейта                             : VBR

Общее
Полное имя                               : Детектив Элайдж Бейли и робот Дэниел Оливо 4.m4b
Формат                                   : MPEG-4
Профиль формата                          : Apple audio with iTunes position
Идентификатор кодека                     : M4B  (M4B /mp42/isom)
Размер файла                             : 333 Мбайт
Продолжительность                        : 12 ч.
Режим общего битрейта                    : Переменный
Общий поток                              : 63,4 Кбит/сек
Альбом                                   : Детектив Элайдж Бейли и робот Дэниел Оливо
Альбом/Исполнитель                       : Айзек Азимов
Трек                                     : Детектив Элайдж Бейли и робот Дэниел Оливо 4
Трек/Положение                           : 4
Трек/Всего                               : 4
Исполнитель                              : Айзек Азимов
Композитор                               : Михаил Макушев
Жанр                                     : Фантастика
Дата записи                              : 2019
Дата кодирования                         : UTC 2019-07-15 15:12:51
Дата пометки                             : UTC 2019-07-15 18:25:06
Обложка                                  : Yes
art                                      : Айзек Азимов

Аудио
Идентификатор                            : 1
Формат                                   : AAC LC
Формат/Информация                        : Advanced Audio Codec Low Complexity
Идентификатор кодека                     : mp4a-40-2
Продолжительность                        : 12 ч.
Вид битрейта                             : Переменный
Битрейт                                  : 64,0 Кбит/сек
Максимальный битрейт                     : 81,7 Кбит/сек
Каналы                                   : 2 канала
Channel layout                           : L R
Частота                                  : 24,0 КГц
Частота кадров                           : 23,438 кадра/сек (1024 SPF)
Метод сжатия                             : С потерями
Размер потока                            : 328 Мбайт (99%)
Дата кодирования                         : UTC 2019-07-15 15:12:51
Дата пометки                             : UTC 2019-07-15 18:25:06
Menus                                    : 2

Меню
Идентификатор                            : 2
Идентификатор кодека                     : text
Продолжительность                        : 12 ч.
Язык                                     : English
Дата кодирования                         : UTC 2019-07-15 19:38:31
Дата пометки                             : UTC 2019-07-15 19:38:31
Menu For                                 : 1
00:00:00.000                             : 1985. Роботы и Империя. Глава 2. Предок
00:38:16.320                             : 1985. Роботы и Империя. Глава 3. Кризис
01:30:54.506                             : 1985. Роботы и Империя. Глава 4. Другой потомок
02:03:47.114                             : 1985. Роботы и Империя. Часть 2. Солярия. Глава 5.. Покинутая планета
02:41:43.423                             : 1985. Роботы и Империя. Глава 6. Экипаж
03:11:28.469                             : 1985. Роботы и Империя. Глава 7. Надзирательница
03:53:48.202                             : 1985. Роботы и Империя. Часть 3. Бейлимир. Глава 8. Поселенческий мир
04:26:46.485                             : 1985. Роботы и Империя. Глава 9. Речь
05:15:40.372                             : 1985. Роботы и Империя. Глава 10. После выступления
06:03:55.391                             : 1985. Роботы и Империя. Часть 4. Аврора. Глава 11. Старый лидер
06:39:56.757                             : 1985. Роботы и Империя. Глава 12. План и дочь
07:19:36.106                             : 1985. Роботы и Империя. Глава 13. Робот-телепат
08:19:38.751                             : 1985. Роботы и Империя. Глава 14. Дуэль
09:08:20.692                             : 1985. Роботы и Империя. Часть 5. Земля. Глава 15. Священная планета
09:51:56.927                             : 1985. Роботы и Империя. Глава 16. Город
10:31:53.130                             : 1985. Роботы и Империя. Глава 17. Покушение
11:17:10.655                             : 1985. Роботы и Империя. Глава 18. Нулевой закон
12:06:45.546                             : 1985. Роботы и Империя. Глава 19. Один
Вид битрейта                             : VBR

[NNMClub.to]_Detektiv YElaydzh Beyli i robot Dyeniel Olivo.torrent
 Торрент: Платиновая раздача  Зарегистрирован
 
Скачать


Примагнититься
 Зарегистрирован:   16 Июл 2019 19:06:17
 Размер:   1,19 GB  (
 Рейтинг:    (Голосов: 7)
 Поблагодарили:   70
 Проверка:   Оформление проверено модератором 20 Июл 2019 23:03:02
WebMoney кошелек: R662717423455
Как cкачать  ·  Как раздать  ·  Правильно оформить  ·  Поднять ратио!  
fgfds
Стаж: 7 лет 9 мес.
Сообщений: 793
Ratio: 22,822
Раздал: 26,46 TB
15%
Детроит Становиться человеком?
gotham2012
Стаж: 7 лет 2 мес.
Сообщений: 719
Ratio: 4,766
100%
haiti.gif
fgfds писал(а): Перейти к сообщению
Детроит Становиться человеком?

Не понимайт.

_________________
Ценность чужого мнения в том, что оно не имеет никакой ценности.
Показать сообщения:   
Начать новую тему   Ответить на тему    Торрент-трекер NNM-Club -> Аудио и Видео -> Аудиокниги (AAC) Часовой пояс: GMT + 3
Страница 1 из 1