Классический форум-трекер
canvas not supported
Нас вместе: 4 079 358

Полковник Редль / Oberst Redl (1985) DVDRip


 
 
RSS
Начать новую тему   Ответить на тему    Торрент-трекер NNM-Club -> Классика кино и Старые фильмы до 90-х -> Старые Зарубежные Фильмы (HD, UHD, UHD-LQ, 3D)
Автор Сообщение
SVL23 ®
Стаж: 9 лет 2 мес.
Сообщений: 12
Ratio: 22,342
Раздал: 43,42 TB
Поблагодарили: 1097
100%
russia.gif
Полковник Редль / Oberst Redl (1985) DVDRip
Русское название: Полковник Редль
Оригинальное название: Oberst Redl
Год выпуска: 1985
Жанр: Драма, Военный

Описание фильма:
Это событие в 1913 году, накануне мировой войны всколыхнуло всю Европу. Начальник разведки австро-венгерской армии Альфред Редль, изобличенный в измене, покончил с собой. Что явилось причиной измены? Историки, публицисты, кино и театр не раз обращались к этой, до сих пор окончательно не разгаданной истории. Венгерский режиссер Иштаван Сабо и австрийский актер Клаус Мария Брендауэр, предложили свою историю человека, начавшего с верноподданного служения императору Францу-Иосифу и кончившего предательством всего, что он любит и перед чем преклонялся.

Режиссер: Иштван Сабо /István Szabó/
Актеры: Армин Мюллер-Шталь /Armin Mueller-Stahl/, Клаус Мария Брандауер /Klaus Maria Brandauer/, Ганс Кристиан Блех /Hans Christian Blech

Продолжительность: 02:16:13
Перевод: Одноголосый закадровый



Дата мировой премьеры: 20.02.85
Дата выхода DVD релиза: 19.11.09

Видеокодек: Xvid
Битрейт видео:
1196 kbps avg
Размер кадра: 640x352
Качество видео: DVDRip
Аудиокодек: MP3
Битрейт аудио: 128kbp
MediaInfo
Полное имя : D:\ТОРЕНТЫ\Polkovnik_Redl(DVDRip.XviD.Rus.De).avi
Формат : AVI
Формат/Информация : Audio Video Interleave
Размер файла : 1,37 Гбайт
Продолжительность : 2 ч. 16 м.
Общий поток : 1435 Кбит/сек
Программа кодирования : VirtualDubMod 1.5.4.1 (build 2178/release)
Библиотека кодирования : VirtualDubMod build 2178/release

Видео
Идентификатор : 0
Формат : MPEG-4 Visual
Профиль формата : Simple@L3
Параметр BVOP формата : 4
Параметр QPel формата : Нет
Параметр GMC формата : Без точки перехода
Параметр матрицы формата : Default (MPEG)
Идентификатор кодека : XVID
Идентификатор кодека/Подсказка : XviD
Продолжительность : 2 ч. 16 м.
Битрейт : 1196 Кбит/сек
Ширина : 640 пикселей
Высота : 352 пикселя
Соотношение сторон : 16:9
Частота кадров : 25,000 кадров/сек
Цветовое пространство : YUV
Субдискретизация насыщенности : 4:2:0
Битовая глубина : 8 бит
Тип развёртки : Прогрессивная
Метод сжатия : С потерями
Бит/(Пиксели*Кадры) : 0.212
Размер потока : 1,14 Гбайт (83%)
Библиотека кодирования : XviD 1.0.2 (UTC 2004-08-29)

Аудио #1
Идентификатор : 1
Формат : MPEG Audio
Версия формата : Version 1
Профиль формата : Layer 3
Идентификатор кодека : 55
Идентификатор кодека/Подсказка : MP3
Продолжительность : 2 ч. 16 м.
Вид битрейта : Постоянный
Битрейт : 128 Кбит/сек
Каналы : 2 канала
Частота : 48,0 КГц
Метод сжатия : С потерями
Размер потока : 125 Мбайт (9%)
Выравнивание : Разделение по промежуткам
Продолжительность промежутка : 40 мс. (1,00 видеокадр)
Время предзагрузки промежутка : 500 мс.

Аудио #2
Идентификатор : 2
Формат : MPEG Audio
Версия формата : Version 1
Профиль формата : Layer 3
Идентификатор кодека : 55
Идентификатор кодека/Подсказка : MP3
Продолжительность : 2 ч. 16 м.
Вид битрейта : Постоянный
Битрейт : 96,0 Кбит/сек
Каналы : 2 канала
Частота : 44,1 КГц
Метод сжатия : С потерями
Размер потока : 93,5 Мбайт (7%)
Выравнивание : Разделение по промежуткам
Продолжительность промежутка : 40 мс. (1,00 видеокадр)
Время предзагрузки промежутка : 500 мс.
Скриншоты:


Время раздачи: 24\7круглосуточно
[NNM-Club.ru]_Polkovnik_Redl(DVDRip.XviD.Rus.De).avi.torrent
 Торрент: Платиновая раздача  Зарегистрирован
 
Скачать


Примагнититься
 Зарегистрирован:   09 Мар 2013 12:53:30
 Размер:   1,37 GB  (
 Рейтинг:   4,8 (Голосов: 13)
 Поблагодарили:   52
 Проверка:   Оформление проверено модератором 13 Мар 2013 10:25:44
Как cкачать  ·  Как раздать  ·  Правильно оформить  ·  Поднять ратио!  
Топик был перенесен из форума Авторское кино в форум Старые Зарубежные Фильмы (HD, UHD, UHD-LQ, 3D)



Исправил релиз - напиши ЛС MAG3131, дав ссылку на релиз.
Если нет ответа 24 часа - нажми на кнопку "Обратить внимание модераторов".
Показать сообщения:   
Начать новую тему   Ответить на тему    Торрент-трекер NNM-Club -> Классика кино и Старые фильмы до 90-х -> Старые Зарубежные Фильмы (HD, UHD, UHD-LQ, 3D) Часовой пояс: GMT + 3
Страница 1 из 1