Классический форум-трекер
canvas not supported
Нас вместе: 4 077 770

Андриеш (1954) DVD5


 
 
RSS
Начать новую тему   Ответить на тему    Торрент-трекер NNM-Club -> Видео -> Отечественные Фильмы для детей
Автор Сообщение
Alex_Fors ®
Стаж: 8 лет 11 мес.
Сообщений: 387
Ratio: 102,587
Поблагодарили: 18357
100%
portugal.gif
Андриеш (1954) DVD5
Производство: СССР
Жанр: Семейный, Сказка, Детский

Режиссер: Яков Базелян, Сергей Параджанов
Актеры: Гиули Чохонелидзе, Константин Руссу, Людмила Соколова, К. Стирбу, Евгений Ереке, Доминика Дариенко, Р. Клявин, Трифон Грузин, Нодар Шашик-оглы

Описание :
По одноименной сказке Емилиана Букова о герое молдавских сказок — пастушонке Андриеше, мечтавшем стать витязем, о волшебной свирели, которую однажды ему подарил сказочный богатырь Вайнован, и борьбе со злым волшебником Черным Вихрем, ненавидящем все живое.


Возраст: 12+ (зрителям, достигшим 12 лет)

Продолжительность: 00:58:27
Качество видео: DVD9

Видео: MPEG-2, 720x576@768x576, ~8000 Kbps
Аудио: AC3, 6 ch, 384 Kbps
Субтитры: Отсутствуют
Дополнительные материалы: Отсутствуют
Title: Андриеш.1954.DVD5
Size: 3.70 Gb ( 3 880 714,00 KBytes ) - DVD-5
Enabled regions: 1, 2, 3, 4, 5, 6, 7, 8

VTS_01 :
Play Length: 00:58:27
Video: PAL 4:3 (720x576) VBR, Letterboxed
Audio:
Russian (Dolby AC3, 6 ch)

VTS_02 :
Play Length: 00:00:05+00:00:08
Video: PAL 4:3 (720x576) VBR, Letterboxed
Audio:
Russian (Dolby AC3, 6 ch)

* Menus Information *

VIDEO_TS Menu
Video:
PAL 4:3 (720x576) VBR
Letterboxed
Audio:
Not specified (Dolby AC3, 2 ch)
English Language Unit :
Title Menu

VTS_01 Menu
Video:
PAL 4:3 (720x576) VBR
Audio:
Not specified (Dolby AC3, 2 ch)
English Language Unit :
Root Menu
Chapter (PTT) Menu

VTS_02 Menu
Video:
NTSC 4:3 (720x480) VBR
Auto Pan&Scan, Auto Letterboxed
English Language Unit :
Root Menu

Формат : MPEG-PS
Размер файла : 1000 Мбайт
Продолжительность : 15 м.
Общий поток : 8966 Кбит/сек

Видео
Идентификатор : 224 (0xE0)
Формат : MPEG Video
Версия формата : Version 2
Профиль формата : Main@Main
Параметр BVOP формата : Да
Параметр матрицы формата : Выборочная
Параметр GOP формата : M=3, N=13
Продолжительность : 15 м.
Вид битрейта : Переменный
Битрейт : 8404 Кбит/сек
Максимальный битрейт : 9200 Кбит/сек
Ширина : 720 пикселей
Высота : 576 пикселей
Соотношение сторон : 4:3
Частота кадров : 25,000 кадров/сек
Стандарт вещания : PAL
Цветовое пространство : YUV
Субдискретизация насыщенности : 4:2:0
Битовая глубина : 8 бит
Тип развёртки : Чересстрочная
Порядок развёртки : Верхнее поле первое
Метод сжатия : С потерями
Бит/(Пиксели*Кадры) : 0.811
Размер потока : 938 Мбайт (94%)

Аудио
Идентификатор : 189 (0xBD)-128 (0x80)
Формат : AC-3
Формат/Информация : Audio Coding 3
Расширение режима : CM (complete main)
Режим смешивания : DVD-Video
Продолжительность : 15 м.
Вид битрейта : Постоянный
Битрейт : 384 Кбит/сек
Каналы : 6 каналов
Расположение каналов : Front: L C R, Side: L R, LFE
Частота : 48,0 КГц
Битовая глубина : 16 бит
Метод сжатия : С потерями
Задержка видео : -192 мс.
Размер потока : 42,8 Мбайт (4%)

Меню
Скриншоты:


Все одноименные релизы в Клубе

Время раздачи: 24/7 (до появления первых 3-5 скачавших)
[NNMClub.to]_Andriesh.1954.DVD5.torrent
 Торрент: Платиновая раздача  Зарегистрирован
 
Скачать


Примагнититься
 Зарегистрирован:   31 Июл 2019 12:10:25
 Размер:   3,7 GB  (
 Рейтинг:    (Голосов: 8)
 Поблагодарили:   32
 Проверка:   Оформление проверено модератором 31 Июл 2019 12:13:32
Как cкачать  ·  Как раздать  ·  Правильно оформить  ·  Поднять ратио!  
almikl
Куратор Детского.
Модератор Видео.
RG Всё лучшее - детям!
Uploader 500+
 

Online
Стаж: 12 лет 3 мес.
Сообщений: 4702
Ratio: 332,623
Поблагодарили: 105605
100%
Откуда: Дааалекое Подмосковье
russia.gif
Торрент перерегистрирован в рамках акции Включаем DHT в древних раздачах
Теперь вам нужно его скачать и открыть в торрент-клиенте, указав в качестве места сохранения раздаваемый файл или папку.
Показать сообщения:   
Начать новую тему   Ответить на тему    Торрент-трекер NNM-Club -> Видео -> Отечественные Фильмы для детей Часовой пояс: GMT + 3
Страница 1 из 1