Классический форум-трекер
canvas not supported
Нас вместе: 4 079 573

Андриеш (1954) DVDRip


 
 
RSS
Начать новую тему   Ответить на тему    Торрент-трекер NNM-Club -> Видео -> Отечественные Фильмы для детей
Автор Сообщение
almikl ®
Куратор Детского.
Модератор Видео.
RG Всё лучшее - детям!
Uploader 500+
 
Стаж: 12 лет 4 мес.
Сообщений: 4759
Ratio: 340,814
Поблагодарили: 107549
100%
Откуда: Дааалекое Подмосковье
russia.gif
Андриеш (1954) DVDRip
Производство: СССР
Жанр: Семейный, Сказка, Детский

Режиссер: Яков Базелян, Сергей Параджанов
Актеры: Гиули Чохонелидзе, Константин Руссу, Людмила Соколова, К. Стирбу, Евгений Ереке, Доминика Дариенко, Р. Клявин, Трифон Грузин, Нодар Шашик-оглы

Описание :
По одноименной сказке Емилиана Букова о герое молдавских сказок — пастушонке Андриеше, мечтавшем стать витязем, о волшебной свирели, которую однажды ему подарил сказочный богатырь Вайнован, и борьбе со злым волшебником Черным Вихрем, ненавидящем все живое.


Возраст: 12+ (зрителям, достигшим 12 лет)

Релиз от: almikl ®

Продолжительность: 00:58:27
Качество видео: DVDRip

Видео: XviD, 688x512, ~3000 Kbps
Аудио: AC3, 6 ch, 384 Kbps

Общее
Полное имя : Андриеш.1954.DVDRip.almikl.nnmclub.avi
Формат : AVI
Формат/Информация : Audio Video Interleave
Размер файла : 1,37 Гбайт
Продолжительность : 58 м. 27 с.
Общий поток : 3349 Кбит/сек
Программа кодирования : VirtualDubMod 1.5.4.1 (build 2178/release)
Библиотека кодирования : VirtualDubMod build 2178/release

Видео
Идентификатор : 0
Формат : MPEG-4 Visual
Профиль формата : Advanced Simple@L5
Настройки формата : BVOP1 / Custom Matrix
Параметр BVOP формата : 1
Параметр QPel формата : Нет
Параметр GMC формата : Без точки перехода
Параметр матрицы формата : Выборочная
Идентификатор кодека : XVID
Идентификатор кодека/Подсказка : XviD
Продолжительность : 58 м. 27 с.
Битрейт : 2958 Кбит/сек
Ширина : 688 пикселей
Высота : 512 пикселей
Соотношение сторон : 4:3
Частота кадров : 25,000 кадров/сек
Цветовое пространство : YUV
Субдискретизация насыщенности : 4:2:0
Битовая глубина : 8 бит
Тип развёртки : Прогрессивная
Метод сжатия : С потерями
Бит/(Пиксели*Кадры) : 0.336
Размер потока : 1,21 Гбайт (88%)
Библиотека кодирования : XviD 73

Аудио
Идентификатор : 1
Формат : AC-3
Формат/Информация : Audio Coding 3
Коммерческое название : Dolby Digital
Идентификатор кодека : 2000
Продолжительность : 58 м. 27 с.
Вид битрейта : Постоянный
Битрейт : 384 Кбит/сек
Каналы : 6 каналов
ChannelLayout : L R C LFE Ls Rs
Частота : 48,0 КГц
Частота кадров : 31,250 кадров/сек (1536 SPF)
Битовая глубина : 16 бит
Метод сжатия : С потерями
Размер потока : 161 Мбайт (11%)
Выравнивание : Разделение по промежуткам
Продолжительность промежутка : 96 мс. (2,40 видеокадра)
Время предзагрузки промежутка : 96 мс.
ServiceKind/String : Complete Main
Скриншоты:


Все одноименные релизы в Клубе

Время раздачи: 24/7 (до появления первых 3-5 скачавших)
Andriesh.1954.DVDRip.almikl.nnmclub.avi.torrent
 Торрент: Платиновая раздача  Зарегистрирован
 
Скачать


Примагнититься
 Зарегистрирован:   01 Авг 2019 13:59:37
 Размер:   1,37 GB  (
 Рейтинг:    (Голосов: 3)
 Поблагодарили:   22
 Проверка:   Оформление проверено модератором 01 Авг 2019 14:00:13
Как cкачать  ·  Как раздать  ·  Правильно оформить  ·  Поднять ратио!  
Показать сообщения:   
Начать новую тему   Ответить на тему    Торрент-трекер NNM-Club -> Видео -> Отечественные Фильмы для детей Часовой пояс: GMT + 3
Страница 1 из 1