Классический форум-трекер
canvas not supported
Нас вместе: 4 079 304

Проданный смех (1981) DVDRip


 
 
RSS
Начать новую тему   Ответить на тему    Торрент-трекер NNM-Club -> Видео -> Отечественные Фильмы для детей
Автор Сообщение
almikl ®
Куратор Детского.
Модератор Видео.
RG Всё лучшее - детям!
Uploader 500+
 
Стаж: 12 лет 4 мес.
Сообщений: 4758
Ratio: 340,587
Поблагодарили: 107543
100%
Откуда: Дааалекое Подмосковье
russia.gif
Проданный смех (1981) DVDRip
Производство: СССР
Жанр: мюзикл, фэнтези, приключения, семейный

Режиссер: Леонид Нечаев
Сценарий: Инна Веткина, Джеймс Крюс
Оператор: Владимир Калашников
Композитор : Максим Дунаевский
Художник: Алим Матвейчук
Монтаж: Вера Коляденко

Актеры: Павел Кадочников, Саша Продан, Женя Григорьева, Настя Нечаева, Вадим Белевцев, Наталья Гундарева, Екатерина Васильева, Надежда Румянцева, Юрий Катин-Ярцев, Гасан Мамедов, Анатолий Галевский, Игорь Дмитриев, Борислав Брондуков, Федор Никитин

Описание: После смерти отца Тим Талер, добрый и веселый мальчик, остается со скупой мачехой. Он продает свой смех злому волшебнику в обмен на способность выигрывать любые пари. Но без улыбки и смеха, оказывается, не может быть счастья. Тогда Тим пускается в опасное путешествие, чтобы вернуть смех…


Возраст: 12+ (зрителям, достигшим 12 лет)

Релиз от: almikl ®

Продолжительность: 02:10:14
Качество видео: DVDRip (700 mb)

Видео: XviD, 432x320, ~600 Kbps
Аудио: MP3, 2 ch, 128 Kbps
Код: выделить все
Общее
Полное имя                               : Проданный смех.1981.DVDRip.700.almikl.nnmclub.avi
Формат                                   : AVI
Формат/Информация                        : Audio Video Interleave
Размер файла                             : 700 Мбайт
Продолжительность                        : 2 ч. 10 м.
Режим общего битрейта                    : Переменный
Общий поток                              : 750 Кбит/сек
Программа кодирования                    : VirtualDubMod 1.5.4.1 (build 2178/release)
Библиотека кодирования                   : VirtualDubMod build 2178/release

Видео
Идентификатор                            : 0
Формат                                   : MPEG-4 Visual
Профиль формата                          : Advanced Simple@L5
Настройки формата                        : BVOP1 / Custom Matrix
Параметр BVOP формата                    : 1
Параметр QPel формата                    : Нет
Параметр GMC формата                     : Без точки перехода
Параметр матрицы формата                 : Выборочная
Идентификатор кодека                     : XVID
Идентификатор кодека/Подсказка           : XviD
Продолжительность                        : 2 ч. 10 м.
Битрейт                                  : 624 Кбит/сек
Ширина                                   : 432 пикселя
Высота                                   : 320 пикселей
Соотношение сторон                       : 4:3
Частота кадров                           : 25,000 кадров/сек
Цветовое пространство                    : YUV
Субдискретизация насыщенности            : 4:2:0
Битовая глубина                          : 8 бит
Тип развёртки                            : Прогрессивная
Метод сжатия                             : С потерями
Бит/(Пиксели*Кадры)                      : 0.181
Размер потока                            : 583 Мбайт (83%)
Библиотека кодирования                   : XviD 73

Аудио
Идентификатор                            : 1
Формат                                   : MPEG Audio
Версия формата                           : Version 1
Профиль формата                          : Layer 3
Настройки формата                        : Joint stereo
Идентификатор кодека                     : 55
Идентификатор кодека/Подсказка           : MP3
Продолжительность                        : 2 ч. 10 м.
Вид битрейта                             : Переменный
Битрейт                                  : 113 Кбит/сек
Номинальный битрейт                      : 128 Кбит/сек
Каналы                                   : 2 канала
Частота                                  : 48,0 КГц
Частота кадров                           : 41,667 кадра/сек (1152 SPF)
Метод сжатия                             : С потерями
Размер потока                            : 105 Мбайт (15%)
Выравнивание                             : Соединение по промежуткам
Продолжительность промежутка             : 24  мс. (0,60 видеокадр)
Время предзагрузки промежутка            : 521  мс.
Библиотека кодирования                   : LAME3.98r
Настройки программы                      : -m j -V 4 -q 2 -lowpass 17 --abr 128
Скриншоты:


Время раздачи: 24/7, круглосуточно, до 10 скачавших
Все релизы Проданный смех на NNM-CLUB
Prodannyiy smeh.1981.DVDRip.700.almikl.nnmclub.avi.torrent
 Торрент: Платиновая раздача  Зарегистрирован
 
Скачать


Примагнититься
 Зарегистрирован:   02 Авг 2019 11:05:59
 Размер:   700 MB  (
 Рейтинг:    (Голосов: 4)
 Поблагодарили:   25
 Проверка:   Оформление проверено модератором 02 Авг 2019 11:07:42
Как cкачать  ·  Как раздать  ·  Правильно оформить  ·  Поднять ратио!  
Показать сообщения:   
Начать новую тему   Ответить на тему    Торрент-трекер NNM-Club -> Видео -> Отечественные Фильмы для детей Часовой пояс: GMT + 3
Страница 1 из 1