Классический форум-трекер
canvas not supported
Нас вместе: 4 079 139

Проданный смех (1981) DVDRemux


 
 
RSS
Начать новую тему   Ответить на тему    Торрент-трекер NNM-Club -> Видео -> Отечественные Фильмы для детей
Автор Сообщение
almikl ®
Куратор Детского.
Модератор Видео.
RG Всё лучшее - детям!
Uploader 500+
 
Стаж: 12 лет 4 мес.
Сообщений: 4755
Ratio: 338,832
Поблагодарили: 107354
100%
Откуда: Дааалекое Подмосковье
russia.gif
Проданный смех (1981) DVDRemux
Производство: СССР
Жанр: мюзикл, фэнтези, приключения, семейный

Режиссер: Леонид Нечаев
Сценарий: Инна Веткина, Джеймс Крюс
Оператор: Владимир Калашников
Композитор : Максим Дунаевский
Художник: Алим Матвейчук
Монтаж: Вера Коляденко

Актеры: Павел Кадочников, Саша Продан, Женя Григорьева, Настя Нечаева, Вадим Белевцев, Наталья Гундарева, Екатерина Васильева, Надежда Румянцева, Юрий Катин-Ярцев, Гасан Мамедов, Анатолий Галевский, Игорь Дмитриев, Борислав Брондуков, Федор Никитин

Описание: После смерти отца Тим Талер, добрый и веселый мальчик, остается со скупой мачехой. Он продает свой смех злому волшебнику в обмен на способность выигрывать любые пари. Но без улыбки и смеха, оказывается, не может быть счастья. Тогда Тим пускается в опасное путешествие, чтобы вернуть смех…


Возраст: 12+ (зрителям, достигшим 12 лет)

Релиз от: almikl ®

Продолжительность: 02:10:14
Качество видео: DVDRemux

Видео: MPEG-2, 720x576@768x576, ~6000 Kbps
Аудио: AC3, 2 ch, 192 Kbps
Код: выделить все
Общее
Уникальный идентификатор                 : 177840697281379505714276301175183112502 (0x85CADF571495102470889729BF57F936)
Полное имя                               : Проданный смех.1981.DVDRemux.almikl.nnmclub.mkv
Формат                                   : Matroska
Версия формата                           : Version 2
Размер файла                             : 5,65 Гбайт
Продолжительность                        : 2 ч. 10 м.
Режим общего битрейта                    : Переменный
Общий поток                              : 6197 Кбит/сек
Дата кодирования                         : UTC 2019-07-30 09:46:02
Программа кодирования                    : MakeMKV v1.14.3 win(x64-release)
Библиотека кодирования                   : libmakemkv v1.14.3 (1.3.5/1.4.7) win(x64-release)

Видео
Идентификатор                            : 1
OriginalSourceMedium_ID/String           : 224 (0xE0)
Формат                                   : MPEG Video
Версия формата                           : Version 2
Профиль формата                          : Main@Main
Настройки формата                        : CustomMatrix / BVOP
Параметр BVOP формата                    : Да
Параметр матрицы формата                 : Выборочная
Параметр GOP формата                     : M=3, N=15
Структура изображения                    : Frame
Идентификатор кодека                     : V_MPEG2
Идентификатор кодека/Информация          : MPEG 1 or 2 Video
Продолжительность                        : 2 ч. 10 м.
Вид битрейта                             : Переменный
Битрейт                                  : 6000 Кбит/сек
Максимальный битрейт                     : 9000 Кбит/сек
Ширина                                   : 720 пикселей
Высота                                   : 576 пикселей
Соотношение сторон                       : 4:3
Режим частоты кадров                     : Постоянный
Частота кадров                           : 25,000 кадров/сек
Стандарт вещания                         : PAL
Цветовое пространство                    : YUV
Субдискретизация насыщенности            : 4:2:0
Битовая глубина                          : 8 бит
Тип развёртки                            : Чересстрочная
Порядок развёртки                        : Нижнее поле первое
Метод сжатия                             : С потерями
Бит/(Пиксели*Кадры)                      : 0.579
Временной код первого кадра              : 00:00:00:00
Оригинал временного кода                 : Group of pictures header
GOP, открыто/закрыто                     : Открыто
GOP, открыто/закрыто на первом кадре     : Закрыто
Размер потока                            : 5,47 Гбайт (97%)
Язык                                     : English
Default                                  : Нет
Forced                                   : Нет
Носитель оригинала                       : DVD-Video

Аудио
Идентификатор                            : 2
OriginalSourceMedium_ID/String           : 189 (0xBD)128 (0x80)
Формат                                   : AC-3
Формат/Информация                        : Audio Coding 3
Коммерческое название                    : Dolby Digital
Идентификатор кодека                     : A_AC3
Продолжительность                        : 2 ч. 10 м.
Вид битрейта                             : Постоянный
Битрейт                                  : 192 Кбит/сек
Каналы                                   : 2 канала
ChannelLayout                            : L R
Частота                                  : 48,0 КГц
Частота кадров                           : 31,250 кадров/сек (1536 SPF)
Битовая глубина                          : 16 бит
Метод сжатия                             : С потерями
Размер потока                            : 179 Мбайт (3%)
Заголовок                                : Stereo
Язык                                     : English
ServiceKind/String                       : Complete Main
Default                                  : Да
Forced                                   : Нет
Носитель оригинала                       : DVD-Video

Меню
00:00:00.000                             : en:Chapter 01
00:09:58.680                             : en:Chapter 02
00:19:46.840                             : en:Chapter 03
00:31:58.280                             : en:Chapter 04
00:40:15.520                             : en:Chapter 05
00:51:04.080                             : en:Chapter 06
01:00:10.560                             : en:Chapter 07
01:12:48.280                             : en:Chapter 08
01:22:08.520                             : en:Chapter 09
01:34:21.760                             : en:Chapter 10
01:47:08.360                             : en:Chapter 11
01:58:06.360                             : en:Chapter 12
Скриншоты:


Время раздачи: 24/7, круглосуточно, до 10 скачавших
Все релизы Проданный смех на NNM-CLUB
Prodannyiy smeh.1981.DVDRemux.almikl.nnmclub.mkv.torrent
 Торрент: Платиновая раздача  Зарегистрирован
 
Скачать


Примагнититься
 Зарегистрирован:   02 Авг 2019 11:28:01
 Размер:   5,65 GB  (
 Рейтинг:   4,7 (Голосов: 14)
 Поблагодарили:   78
 Проверка:   Оформление проверено модератором 02 Авг 2019 11:29:55
Как cкачать  ·  Как раздать  ·  Правильно оформить  ·  Поднять ратио!  
Загрузка...
Показать сообщения:   
Начать новую тему   Ответить на тему    Торрент-трекер NNM-Club -> Видео -> Отечественные Фильмы для детей Часовой пояс: GMT + 3
Страница 1 из 1