Классический форум-трекер
canvas not supported
Нас вместе: 4 079 358

Проданный смех (1981) DVD9


 
 
RSS
Начать новую тему   Ответить на тему    Торрент-трекер NNM-Club -> Видео -> Отечественные Фильмы для детей
Автор Сообщение
almikl ®
Куратор Детского.
Модератор Видео.
RG Всё лучшее - детям!
Uploader 500+
 
Стаж: 12 лет 4 мес.
Сообщений: 4759
Ratio: 340,63
Поблагодарили: 107545
100%
Откуда: Дааалекое Подмосковье
russia.gif
Проданный смех (1981) DVD9
Производство: СССР
Жанр: мюзикл, фэнтези, приключения, семейный

Режиссер: Леонид Нечаев
Сценарий: Инна Веткина, Джеймс Крюс
Оператор: Владимир Калашников
Композитор : Максим Дунаевский
Художник: Алим Матвейчук
Монтаж: Вера Коляденко

Актеры: Павел Кадочников, Саша Продан, Женя Григорьева, Настя Нечаева, Вадим Белевцев, Наталья Гундарева, Екатерина Васильева, Надежда Румянцева, Юрий Катин-Ярцев, Гасан Мамедов, Анатолий Галевский, Игорь Дмитриев, Борислав Брондуков, Федор Никитин

Описание: После смерти отца Тим Талер, добрый и веселый мальчик, остается со скупой мачехой. Он продает свой смех злому волшебнику в обмен на способность выигрывать любые пари. Но без улыбки и смеха, оказывается, не может быть счастья. Тогда Тим пускается в опасное путешествие, чтобы вернуть смех…


Возраст: 12+ (зрителям, достигшим 12 лет)

Релиз от: almikl ®

Продолжительность: 02:10:14
Качество видео: DVD9
Субтитры: отсутствуют
Дополнительно на диске: реклама фильмов
Меню: анимированое

Видео: MPEG-2, 720x576@768x576, ~6000 Kbps
Аудио: AC3, 2 ch, 192 Kbps
Код: выделить все
Общее
Полное имя                               : Проданный смех.1981.DVD9\VIDEO_TS\VTS_01_3.VOB
Формат                                   : MPEG-PS
Размер файла                             : 1024 Мбайт
Продолжительность                        : 24 м. 42 с.
Режим общего битрейта                    : Переменный
Общий поток                              : 5792 Кбит/сек

Видео
Идентификатор                            : 224 (0xE0)
Формат                                   : MPEG Video
Версия формата                           : Version 2
Профиль формата                          : Main@Main
Настройки формата                        : CustomMatrix / BVOP
Параметр BVOP формата                    : Да
Параметр матрицы формата                 : Выборочная
Параметр GOP формата                     : M=3, N=15
Структура изображения                    : Frame
Продолжительность                        : 24 м. 42 с.
Вид битрейта                             : Переменный
Битрейт                                  : 5485 Кбит/сек
Максимальный битрейт                     : 9000 Кбит/сек
Ширина                                   : 720 пикселей
Высота                                   : 576 пикселей
Соотношение сторон                       : 4:3
Частота кадров                           : 25,000 кадров/сек
Стандарт вещания                         : PAL
Цветовое пространство                    : YUV
Субдискретизация насыщенности            : 4:2:0
Битовая глубина                          : 8 бит
Тип развёртки                            : Чересстрочная
Порядок развёртки                        : Нижнее поле первое
Метод сжатия                             : С потерями
Бит/(Пиксели*Кадры)                      : 0.529
Временной код первого кадра              : 00:33:11:08
Оригинал временного кода                 : Group of pictures header
GOP, открыто/закрыто                     : Открыто
Размер потока                            : 969 Мбайт (95%)

Аудио
Идентификатор                            : 189 (0xBD)-128 (0x80)
Формат                                   : AC-3
Формат/Информация                        : Audio Coding 3
Коммерческое название                    : Dolby Digital
Режим смешивания                         : DVD-Video
Продолжительность                        : 24 м. 42 с.
Вид битрейта                             : Постоянный
Битрейт                                  : 192 Кбит/сек
Каналы                                   : 2 канала
ChannelLayout                            : L R
Частота                                  : 48,0 КГц
Частота кадров                           : 31,250 кадров/сек (1536 SPF)
Битовая глубина                          : 16 бит
Метод сжатия                             : С потерями
Задержка видео                           : -200 мс.
Размер потока                            : 33,9 Мбайт (3%)
ServiceKind/String                       : Complete Main

Меню
Скриншоты:


Время раздачи: 24/7, круглосуточно, до 10 скачавших
Все релизы Проданный смех на NNM-CLUB
[NNMClub.to]_Prodannyiy smeh.1981.DVD9.torrent
 Торрент: Платиновая раздача  Зарегистрирован
 
Скачать


Примагнититься
 Зарегистрирован:   02 Авг 2019 14:58:57
 Размер:   6,37 GB  (
 Рейтинг:    (Голосов: 7)
 Поблагодарили:   34
 Проверка:   Оформление проверено модератором 02 Авг 2019 15:55:51
Как cкачать  ·  Как раздать  ·  Правильно оформить  ·  Поднять ратио!  
Freddy Charles Krueger
Стаж: 10 мес. 22 дня
Сообщений: 22
Ratio: 7,53
100%
Хорошее кино
Kiberyozheg
Стаж: 3 года 4 мес.
Сообщений: 67
Ratio: 3,222
100%
Откуда: от верблюда
ussr.gif
Замечательный фильм. Ещё в 90-х смотрел.
Показать сообщения:   
Начать новую тему   Ответить на тему    Торрент-трекер NNM-Club -> Видео -> Отечественные Фильмы для детей Часовой пояс: GMT + 3
Страница 1 из 1