Классический форум-трекер
canvas not supported
Нас вместе: 4 079 381

Тайна железной двери (1970) DVD5


 
 
RSS
Начать новую тему   Ответить на тему    Торрент-трекер NNM-Club -> Видео -> Отечественные Фильмы для детей
Автор Сообщение
romul7731 ®
Стаж: 9 лет 4 мес.
Сообщений: 203
Ratio: 26,801
Раздал: 25,23 TB
Поблагодарили: 21357
100%
Откуда: Донбасс
ussr.gif
Тайна железной двери (1970) DVD5
Производство: СССР
Жанр: Фантастика, Приключения, Семейный

Режиссер: Михаил Юзовский
Актеры: Эвальдас Микалюнас (...Толик Рыжов), Дмитрий Юзовский (...Митька), Сергей Евсюнин (...Волшебник), Вячеслав Цюпа, Савелий Крамаров, Олег Табаков (...папа), Алиса Фрейндлих (...мама Толика), Светлана Старикова, Андрей Харыбин (...Мишка).

Описание :
Каждый из нас мечтает когда-нибудь найти волшебную палочку, спички или хотя бы "цветик-семицветик", исполняющие любые желания. Мечтать-то мы мечтаем, а вот мальчик Толя Рыжков нашел, хотя, между нами говоря, не был достоин такого везения. Он был большой врун и шалун, маму не слушался, младших обижал, правила дорожного движения нарушал. И в тот злополучный день, с которого начались его невероятные приключения, вел себя плохо. Даже милиционера разозлил! Удирая от него, Толя встретил волшебника, у которого отобрал коробок волшебных спичек. За это злой волшебник (бывают, к сожалению, и такие) перенес Толю на свой волшебный остров. А что из этого получилось, вы узнаете посмотрев этот веселый и увлекательный приключенческий фильм!

Продолжительность: 01:08:17


Возраст: 12+ (зрителям, достигшим 12 лет)

Видео: MPEG-2, 720x576@768x576, ~5000 Kbps
Аудио #1: AC3, 6 ch, 448 Kbps
Аудио #2: AC3, 2 ch, 198 Kbps

Субтитры: русские, английские, французские (вшитые, отключаемые)
Title: DOOR
Size: 4.24 Gb ( 4 445 292,00 KBytes ) - DVD-5
Enabled regions: 1, 2, 3, 4, 5, 6, 7, 8

VTS_01 :
Play Length: 00:00:27
Video: PAL 4:3 (720x576) VBR

VTS_02 :
Play Length: 00:00:21
Video: PAL 4:3 (720x576) VBR
Audio:
Not specified (Dolby AC3, 6 ch)

VTS_03 :
Play Length: 01:08:17
Video: PAL 4:3 (720x576) VBR
Audio:
Russian (Dolby AC3, 6 ch)
Russian (Dolby AC3, 2 ch)
Subtitles:
English
Russian
Francais

VTS_04 :
Play Length: 00:15:56
Video: PAL 4:3 (720x576) VBR
Audio:
Russian (Dolby AC3, 2 ch)
Subtitles:
English
Russian

VTS_05 :
Play Length: 00:02:04
Video: PAL 4:3 (720x576) VBR
Audio:
Russian (Dolby AC3, 6 ch)
Subtitles:
Russian

VTS_06 :
Play Length: 00:01:23
Video: PAL 16:9 (720x576) VBR, Auto Letterboxed
Audio:
English (Dolby AC3, 6 ch)

VTS_07 :
Play Length: 00:01:45
Video: PAL 4:3 (720x576) VBR
Audio:
Russian (Dolby AC3, 2 ch)
Subtitles:
English
Russian

VTS_08 :
Play Length: 00:02:01
Video: PAL 4:3 (720x576) VBR
Audio:
Russian (Dolby AC3, 6 ch)
Subtitles:
English
Russian

VTS_09 :
Play Length: 00:01:17
Video: PAL 4:3 (720x576) VBR
Audio:
Russian (Dolby AC3, 2 ch)

VTS_10 :
Play Length: 00:01:28
Video: PAL 16:9 (720x576) VBR, Auto Letterboxed
Audio:
Russian (Dolby AC3, 6 ch)

VTS_11 :
Play Length: 00:00:30
Video: PAL 4:3 (720x576) VBR
Audio:
Not specified (Dolby AC3, 6 ch)

* Menus Information *

VIDEO_TS Menu
Video:
PAL 4:3 (720x576) VBR
English Language Unit :
Title Menu

VTS_01 Menu
Video:
PAL 4:3 (720x576) VBR
Audio:
Not specified (Dolby AC3, 6 ch)
English Language Unit :
Root Menu

VTS_02 Menu
Video:
PAL 4:3 (720x576) VBR
English Language Unit :
Root Menu

VTS_03 Menu
Video:
PAL 4:3 (720x576) VBR
English Language Unit :
Root Menu

VTS_04 Menu
Video:
PAL 4:3 (720x576) VBR
English Language Unit :
Root Menu

VTS_05 Menu
Video:
PAL 4:3 (720x576) VBR
English Language Unit :
Root Menu

VTS_06 Menu
Video:
PAL 4:3 (720x576) VBR
English Language Unit :
Root Menu

VTS_07 Menu
Video:
PAL 4:3 (720x576) VBR
English Language Unit :
Root Menu

VTS_08 Menu
Video:
PAL 4:3 (720x576) VBR
English Language Unit :
Root Menu

VTS_09 Menu
Video:
PAL 4:3 (720x576) VBR
English Language Unit :
Root Menu

VTS_10 Menu
Video:
PAL 4:3 (720x576) VBR
English Language Unit :
Root Menu

VTS_11 Menu
Video:
PAL 4:3 (720x576) VBR
English Language Unit :
Root Menu
D:\аудиокниги\DOOR\VIDEO_TS\VTS_03_2.VOB
General
Complete name : D:\аудиокниги\DOOR\VIDEO_TS\VTS_03_2.VOB
Format : MPEG-PS
File size : 1 024 MiB
Duration : 25mn 9s
Overall bit rate : 5 691 Kbps
Video #224
ID : 224 (0xE0)
Format : MPEG Video
Format version : Version 2
Format profile : Main@Main
Format settings, BVOP : Yes
Format settings, Matrix : Custom
Format settings, GOP : M=3, N=15
Duration : 25mn 8s
Bit rate mode : Variable
Bit rate : 4 938 Kbps
Nominal bit rate : 9 000 Kbps
Width : 720 pixels
Height : 576 pixels
Display aspect ratio : 4:3
Frame rate : 25.000 fps
Standard : PAL
Color space : YUV
Chroma subsampling : 4:2:0
Bit depth : 8 bits
Scan type : Interlaced
Scan order : Bottom Field First
Compression mode : Lossy
Bits/(Pixel*Frame) : 0.476
Stream size : 888 MiB (87%)
Audio #189-128
ID : 189 (0xBD)-128 (0x80)
Format : AC-3
Format/Info : Audio Coding 3
Mode extension : CM (complete main)
Muxing mode : DVD-Video
Duration : 25mn 9s
Bit rate mode : Constant
Bit rate : 448 Kbps
Channel(s) : 6 channels
Channel positions : Front: L C R, Side: L R, LFE
Sampling rate : 48.0 KHz
Bit depth : 16 bits
Compression mode : Lossy
Delay relative to video : -768ms
Stream size : 80.6 MiB (8%)
Audio #189-129
ID : 189 (0xBD)-129 (0x81)
Format : AC-3
Format/Info : Audio Coding 3
Mode extension : CM (complete main)
Muxing mode : DVD-Video
Duration : 25mn 9s
Bit rate mode : Constant
Bit rate : 192 Kbps
Channel(s) : 2 channels
Channel positions : Front: L R
Sampling rate : 48.0 KHz
Bit depth : 16 bits
Compression mode : Lossy
Delay relative to video : -672ms
Stream size : 34.5 MiB (3%)
Text #189-32
ID : 189 (0xBD)-32 (0x20)
Format : RLE
Format/Info : Run-length encoding
Muxing mode : DVD-Video
Delay relative to video : -200ms
Text #189-33
ID : 189 (0xBD)-33 (0x21)
Format : RLE
Format/Info : Run-length encoding
Muxing mode : DVD-Video
Delay relative to video : -200ms
Text #189-34
ID : 189 (0xBD)-34 (0x22)
Format : RLE
Format/Info : Run-length encoding
Muxing mode : DVD-Video
Delay relative to video : -200ms
Menu
Скриншоты:


Время раздачи: с 18:00 до 07:00 по Киеву
Тайна железной двери на NNM-club
[NNM-Club.ru]_DOOR.torrent
 Торрент: Платиновая раздача  Зарегистрирован
 
Скачать


Примагнититься
 Зарегистрирован:   24 Июн 2012 17:28:51
 Размер:   4,24 GB  (
 Рейтинг:   4,9 (Голосов: 71)
 Поблагодарили:   230
 Проверка:   Оформление проверено модератором 24 Июн 2012 18:51:02
Как cкачать  ·  Как раздать  ·  Правильно оформить  ·  Поднять ратио!  
taras_04
Стаж: 10 лет 5 мес.
Сообщений: 25
Ratio: 10,031
100%
russia.gif
Достаточно одной спички....)))
Myp3uK
Стаж: 9 лет 5 мес.
Сообщений: 4
Ratio: 138,912
100%
russia.gif
Фильм моего детства) Спасибо раздающему)

_________________
igor_d16
Стаж: 13 лет 1 мес.
Сообщений: 74
Ratio: 6,601
Поблагодарили: 103
2.04%
Откуда: Moscow
russia.gif
Хочу смеяться 5 минут. Бу-га-га:-)
Daemon1964
Стаж: 10 лет
Сообщений: 186
Ratio: 48,268
Раздал: 12,71 TB
100%
Откуда: Севастополь
russia.gif
Осторожно! Уровень наркоманских режиссёрских решений зашкаливает!
kpoxa1986
Стаж: 8 лет 4 мес.
Сообщений: 31
Ratio: 4,708
Раздал: 6,672 TB
100%
igor_d16 писал(а): Перейти к сообщению
Хочу смеяться 5 минут. Бу-га-га:-)


:лол:
Кинолей
Стаж: 10 лет 5 мес.
Сообщений: 13
Ratio: 11,927
Раздал: 1,024 TB
30%
russia.gif
Кадрирование 16*9 в 3*4 с потерей информации!
westjack
Стаж: 5 лет 1 мес.
Сообщений: 470
Ratio: 4,893
2.19%
Он был большой врун и шалун, маму не слушался, младших обижал, правила дорожного движения нарушал, пил, курил и ходил на несанкционированные митинги. А ещё не носил пионерский галстук!
Показать сообщения:   
Начать новую тему   Ответить на тему    Торрент-трекер NNM-Club -> Видео -> Отечественные Фильмы для детей Часовой пояс: GMT + 3
Страница 1 из 1