Классический форум-трекер
canvas not supported
Нас вместе: 4 079 096

Алёша Птицын вырабатывает характер (1953) DVDRip


 
 
RSS
Начать новую тему   Ответить на тему    Торрент-трекер NNM-Club -> Видео -> Отечественные Фильмы для детей
Автор Сообщение
almikl ®
Куратор Детского.
Модератор Видео.
RG Всё лучшее - детям!
Uploader 500+
 
Стаж: 12 лет 4 мес.
Сообщений: 4755
Ratio: 338,874
Поблагодарили: 107408
100%
Откуда: Дааалекое Подмосковье
russia.gif
Алёша Птицын вырабатывает характер (1953) DVDRip
Производство: СССР
Жанр: Детский, Семейный

Режиссер: Анатолий Граник
Актеры: Виктор Каргопольцев, Ольга Пыжова, Валентина Сперантова, Наталья Полинковская (Наталья Селезнева), Юрий Бубликов, Валентина Ушакова, Анна Лисянская, Екатерина Савинова, Тамара Алешина, Роза Макагонова, Александр Михайлов, Надежда Румянцева, Лидия Сухаревская

Описание :
По одноименному произведению Агнии Барто. Ученик третьего класса решил заняться самовоспитанием. Отказавшись от опеки рассеянной бабушки и вредной сестренки, он начал с того, что самостоятельно пришел в школу, сорвал урок, устыдившись, сделал хорошее дело - вернул утерянную тетрадь владельцу и отправился показывать гостям столицу, красивую и чистую Москву, высотные здания столицы, новые станции метро, широкие улицы... Соверщенно не думая о том, как к этому отнесутся доpогие папа и мама...


Возраст: 6+ (зрителям, достигшим 6 лет)

Релиз от: almikl ®

Продолжительность: 01:08:07
Качество видео: DVDRip

Видео: XviD, 720x544, ~2500 Kbps
Аудио: AC3, 2 ch, 192 Kbps

Общее
Полное имя : Алёша Птицын вырабатывает характер.1953.DVDRip.almikl.nnmclub.avi
Формат : AVI
Формат/Информация : Audio Video Interleave
Размер файла : 1,37 Гбайт
Продолжительность : 1 ч. 8 м.
Общий поток : 2874 Кбит/сек
Программа кодирования : VirtualDubMod 1.5.4.1 (build 2178/release)
Библиотека кодирования : VirtualDubMod build 2178/release

Видео
Идентификатор : 0
Формат : MPEG-4 Visual
Профиль формата : Advanced Simple@L5
Настройки формата : BVOP1 / Custom Matrix
Параметр BVOP формата : 1
Параметр QPel формата : Нет
Параметр GMC формата : Без точки перехода
Параметр матрицы формата : Выборочная
Идентификатор кодека : XVID
Идентификатор кодека/Подсказка : XviD
Продолжительность : 1 ч. 8 м.
Битрейт : 2675 Кбит/сек
Ширина : 720 пикселей
Высота : 544 пикселя
Соотношение сторон : 4:3
Частота кадров : 25,000 кадров/сек
Цветовое пространство : YUV
Субдискретизация насыщенности : 4:2:0
Битовая глубина : 8 бит
Тип развёртки : Прогрессивная
Метод сжатия : С потерями
Бит/(Пиксели*Кадры) : 0.273
Размер потока : 1,27 Гбайт (93%)
Библиотека кодирования : XviD 73

Аудио
Идентификатор : 1
Формат : AC-3
Формат/Информация : Audio Coding 3
Коммерческое название : Dolby Digital
Идентификатор кодека : 2000
Продолжительность : 1 ч. 8 м.
Вид битрейта : Постоянный
Битрейт : 192 Кбит/сек
Каналы : 2 канала
ChannelLayout : L R
Частота : 48,0 КГц
Частота кадров : 31,250 кадров/сек (1536 SPF)
Битовая глубина : 16 бит
Метод сжатия : С потерями
Размер потока : 93,5 Мбайт (7%)
Выравнивание : Разделение по промежуткам
Продолжительность промежутка : 96 мс. (2,40 видеокадра)
Время предзагрузки промежутка : 96 мс.
ServiceKind/String : Complete Main
Скриншоты:


Все одноименные релизы в Клубе

Время раздачи: 24/7 (до появления первых 3-5 скачавших)
Alesha Ptitsyin vyirabatyivaet harakter.1953.DVDRip.almikl.nnmclub.avi.torrent
 Торрент: Платиновая раздача  Зарегистрирован
 
Скачать


Примагнититься
 Зарегистрирован:   05 Авг 2019 12:26:52
 Размер:   1,37 GB  (
 Рейтинг:    (Голосов: 4)
 Поблагодарили:   35
 Проверка:   Оформление проверено модератором 05 Авг 2019 12:29:33
Как cкачать  ·  Как раздать  ·  Правильно оформить  ·  Поднять ратио!  
Загрузка...
Показать сообщения:   
Начать новую тему   Ответить на тему    Торрент-трекер NNM-Club -> Видео -> Отечественные Фильмы для детей Часовой пояс: GMT + 3
Страница 1 из 1