Классический форум-трекер
canvas not supported
Нас вместе: 4 079 006

Алёша Птицын вырабатывает характер (1953) DVDRip [H.264]


 
 
RSS
Начать новую тему   Ответить на тему    Торрент-трекер NNM-Club -> Видео -> Отечественные Фильмы для детей
Автор Сообщение
almikl ®
Куратор Детского.
Модератор Видео.
RG Всё лучшее - детям!
Uploader 500+
 
Стаж: 12 лет 4 мес.
Сообщений: 4755
Ratio: 338,806
Поблагодарили: 107397
100%
Откуда: Дааалекое Подмосковье
russia.gif
Алёша Птицын вырабатывает характер (1953) DVDRip
Производство: СССР
Жанр: Детский, Семейный

Режиссер: Анатолий Граник
Актеры: Виктор Каргопольцев, Ольга Пыжова, Валентина Сперантова, Наталья Полинковская (Наталья Селезнева), Юрий Бубликов, Валентина Ушакова, Анна Лисянская, Екатерина Савинова, Тамара Алешина, Роза Макагонова, Александр Михайлов, Надежда Румянцева, Лидия Сухаревская

Описание :
По одноименному произведению Агнии Барто. Ученик третьего класса решил заняться самовоспитанием. Отказавшись от опеки рассеянной бабушки и вредной сестренки, он начал с того, что самостоятельно пришел в школу, сорвал урок, устыдившись, сделал хорошее дело - вернул утерянную тетрадь владельцу и отправился показывать гостям столицу, красивую и чистую Москву, высотные здания столицы, новые станции метро, широкие улицы... Соверщенно не думая о том, как к этому отнесутся доpогие папа и мама...


Возраст: 6+ (зрителям, достигшим 6 лет)

Релиз от: almikl ®

Продолжительность: 01:08:07
Качество видео: DVDRip

Видео: AVC\H.264, 688x488, ~2100 Kbps
Аудио: AC3, 2 ch, 192 Kbps

Общее
Уникальный идентификатор : 131891360969615211194350160599903868338 (0x63395A267C32CBE6F57D3B41224395B2)
Полное имя : Алёша Птицын вырабатывает характер.1953.DVDRip.h264.almikl.nnmclub.mkv
Формат : Matroska
Версия формата : Version 2
Размер файла : 1,10 Гбайт
Продолжительность : 1 ч. 8 м.
Общий поток : 2302 Кбит/сек
Дата кодирования : UTC 2019-07-31 16:03:11
Программа кодирования : mkvmerge v34.0.0 ('Sight and Seen') 64-bit
Библиотека кодирования : libebml v1.3.7 + libmatroska v1.5.0

Видео
Идентификатор : 1
Формат : AVC
Формат/Информация : Advanced Video Codec
Профиль формата : High@L4.1
Настройки формата : CABAC / 7 Ref Frames
Параметр CABAC формата : Да
Параметр RefFrames формата : 7 кадров
Идентификатор кодека : V_MPEG4/ISO/AVC
Продолжительность : 1 ч. 8 м.
Битрейт : 2108 Кбит/сек
Ширина : 688 пикселей
Высота : 488 пикселей
Соотношение сторон : 1,410
Режим частоты кадров : Постоянный
Частота кадров : 25,000 кадров/сек
Цветовое пространство : YUV
Субдискретизация насыщенности : 4:2:0
Битовая глубина : 8 бит
Тип развёртки : Прогрессивная
Бит/(Пиксели*Кадры) : 0.251
Размер потока : 1,00 Гбайт (92%)
Библиотека кодирования : x264 core 157 r2969 d4099dd
Настройки программы : cabac=1 / ref=7 / deblock=1:-2:-2 / analyse=0x3:0x133 / me=umh / subme=10 / psy=1 / psy_rd=1.00:0.25 / mixed_ref=1 / me_range=24 / chroma_me=1 / trellis=2 / 8x8dct=1 / cqm=0 / deadzone=6,6 / fast_pskip=0 / chroma_qp_offset=-4 / threads=6 / lookahead_threads=1 / sliced_threads=0 / nr=0 / decimate=0 / interlaced=0 / bluray_compat=0 / constrained_intra=0 / bframes=9 / b_pyramid=2 / b_adapt=2 / b_bias=0 / direct=1 / weightb=1 / open_gop=0 / weightp=2 / keyint=240 / keyint_min=23 / scenecut=40 / intra_refresh=0 / rc_lookahead=40 / rc=2pass / mbtree=1 / bitrate=2108 / ratetol=1.0 / qcomp=0.60 / qpmin=0 / qpmax=69 / qpstep=4 / cplxblur=20.0 / qblur=0.5 / vbv_maxrate=50000 / vbv_bufsize=62500 / nal_hrd=none / filler=0 / ip_ratio=1.10 / aq=3:0.80
Default : Да
Forced : Нет

Аудио
Идентификатор : 2
Формат : AC-3
Формат/Информация : Audio Coding 3
Коммерческое название : Dolby Digital
Идентификатор кодека : A_AC3
Продолжительность : 1 ч. 8 м.
Вид битрейта : Постоянный
Битрейт : 192 Кбит/сек
Каналы : 2 канала
ChannelLayout : L R
Частота : 48,0 КГц
Частота кадров : 31,250 кадров/сек (1536 SPF)
Битовая глубина : 16 бит
Метод сжатия : С потерями
Размер потока : 93,5 Мбайт (8%)
Язык : new
ServiceKind/String : Complete Main
Default : Да
Forced : Нет
Скриншоты:


Все одноименные релизы в Клубе

Время раздачи: 24/7 (до появления первых 3-5 скачавших)
Alesha Ptitsyin vyirabatyivaet harakter.1953.DVDRip.h264.almikl.nnmclub.mkv.torrent
 Торрент: Платиновая раздача  Зарегистрирован
 
Скачать


Примагнититься
 Зарегистрирован:   05 Авг 2019 12:36:11
 Размер:   1,1 GB  (
 Рейтинг:    (Голосов: 5)
 Поблагодарили:   36
 Проверка:   Оформление проверено модератором 05 Авг 2019 12:37:48
Как cкачать  ·  Как раздать  ·  Правильно оформить  ·  Поднять ратио!  
Загрузка...
Показать сообщения:   
Начать новую тему   Ответить на тему    Торрент-трекер NNM-Club -> Видео -> Отечественные Фильмы для детей Часовой пояс: GMT + 3
Страница 1 из 1