Классический форум-трекер
canvas not supported
Нас вместе: 4 078 919

Алёша Птицын вырабатывает характер (1953) DVDRemux


 
 
RSS
Начать новую тему   Ответить на тему    Торрент-трекер NNM-Club -> Видео -> Отечественные Фильмы для детей
Автор Сообщение
almikl ®
Куратор Детского.
Модератор Видео.
RG Всё лучшее - детям!
Uploader 500+
 
Стаж: 12 лет 4 мес.
Сообщений: 4756
Ratio: 339,332
Поблагодарили: 107426
100%
Откуда: Дааалекое Подмосковье
russia.gif
Алёша Птицын вырабатывает характер (1953) DVDRemux
Производство: СССР
Жанр: Детский, Семейный

Режиссер: Анатолий Граник
Актеры: Виктор Каргопольцев, Ольга Пыжова, Валентина Сперантова, Наталья Полинковская (Наталья Селезнева), Юрий Бубликов, Валентина Ушакова, Анна Лисянская, Екатерина Савинова, Тамара Алешина, Роза Макагонова, Александр Михайлов, Надежда Румянцева, Лидия Сухаревская

Описание :
По одноименному произведению Агнии Барто. Ученик третьего класса решил заняться самовоспитанием. Отказавшись от опеки рассеянной бабушки и вредной сестренки, он начал с того, что самостоятельно пришел в школу, сорвал урок, устыдившись, сделал хорошее дело - вернул утерянную тетрадь владельцу и отправился показывать гостям столицу, красивую и чистую Москву, высотные здания столицы, новые станции метро, широкие улицы... Соверщенно не думая о том, как к этому отнесутся доpогие папа и мама...


Возраст: 6+ (зрителям, достигшим 6 лет)

Релиз от: almikl ®

Продолжительность: 01:08:07
Качество видео: DVDRemux

Видео: MPEG-2, 720x576@768x576, ~7800 Kbps
Аудио: AC3, 2 ch, 192 Kbps

Общее
Уникальный идентификатор : 333297958291748246224328219188321096364 (0xFABEDA1161A9C8A57E7E4F86E99892AC)
Полное имя : Алёша Птицын вырабатывает характер.1953.DVDRemux.almikl.nnmclub.mkv
Формат : Matroska
Версия формата : Version 2
Размер файла : 3,80 Гбайт
Продолжительность : 1 ч. 8 м.
Режим общего битрейта : Постоянный
Общий поток : 7997 Кбит/сек
Дата кодирования : UTC 2019-07-31 13:00:18
Программа кодирования : MakeMKV v1.14.3 win(x64-release)
Библиотека кодирования : libmakemkv v1.14.3 (1.3.5/1.4.7) win(x64-release)

Видео
Идентификатор : 1
OriginalSourceMedium_ID/String : 224 (0xE0)
Формат : MPEG Video
Версия формата : Version 2
Профиль формата : Main@Main
Настройки формата : CustomMatrix / BVOP
Параметр BVOP формата : Да
Параметр матрицы формата : Выборочная
Параметр GOP формата : M=3, N=15
Структура изображения : Frame
Идентификатор кодека : V_MPEG2
Идентификатор кодека/Информация : MPEG 1 or 2 Video
Продолжительность : 1 ч. 8 м.
Вид битрейта : Постоянный
Битрейт : 7800 Кбит/сек
Ширина : 720 пикселей
Высота : 576 пикселей
Соотношение сторон : 4:3
Режим частоты кадров : Постоянный
Частота кадров : 25,000 кадров/сек
Стандарт вещания : PAL
Цветовое пространство : YUV
Субдискретизация насыщенности : 4:2:0
Битовая глубина : 8 бит
Тип развёртки : Чересстрочная
Порядок развёртки : Верхнее поле первое
Метод сжатия : С потерями
Бит/(Пиксели*Кадры) : 0.752
Временной код первого кадра : 00:00:00:00
Оригинал временного кода : Group of pictures header
GOP, открыто/закрыто : Открыто
GOP, открыто/закрыто на первом кадре : Закрыто
Размер потока : 3,71 Гбайт (98%)
Язык : English
Default : Нет
Forced : Нет
Носитель оригинала : DVD-Video

Аудио
Идентификатор : 2
OriginalSourceMedium_ID/String : 189 (0xBD)128 (0x80)
Формат : AC-3
Формат/Информация : Audio Coding 3
Коммерческое название : Dolby Digital
Идентификатор кодека : A_AC3
Продолжительность : 1 ч. 8 м.
Вид битрейта : Постоянный
Битрейт : 192 Кбит/сек
Каналы : 2 канала
ChannelLayout : L R
Частота : 48,0 КГц
Частота кадров : 31,250 кадров/сек (1536 SPF)
Битовая глубина : 16 бит
Метод сжатия : С потерями
Размер потока : 93,5 Мбайт (2%)
Заголовок : Stereo
Язык : Russian
ServiceKind/String : Complete Main
Default : Да
Forced : Нет
Носитель оригинала : DVD-Video

Меню
00:00:00.000 : en:Chapter 01
00:07:10.720 : en:Chapter 02
00:14:10.080 : en:Chapter 03
00:23:30.080 : en:Chapter 04
00:27:06.400 : en:Chapter 05
00:35:47.320 : en:Chapter 06
00:41:17.440 : en:Chapter 07
00:50:24.080 : en:Chapter 08
00:57:38.240 : en:Chapter 09
01:04:03.600 : en:Chapter 10
Скриншоты:


Все одноименные релизы в Клубе

Время раздачи: 24/7 (до появления первых 3-5 скачавших)
Alesha Ptitsyin vyirabatyivaet harakter.1953.DVDRemux.almikl.nnmclub.mkv.torrent
 Торрент: Платиновая раздача  Зарегистрирован
 
Скачать


Примагнититься
 Зарегистрирован:   05 Авг 2019 12:42:11
 Размер:   3,8 GB  (
 Рейтинг:   4,9 (Голосов: 14)
 Поблагодарили:   69
 Проверка:   Оформление проверено модератором 05 Авг 2019 12:48:06
Как cкачать  ·  Как раздать  ·  Правильно оформить  ·  Поднять ратио!  
Загрузка...
Показать сообщения:   
Начать новую тему   Ответить на тему    Торрент-трекер NNM-Club -> Видео -> Отечественные Фильмы для детей Часовой пояс: GMT + 3
Страница 1 из 1