Классический форум-трекер
canvas not supported
Нас вместе: 4 077 933

Магия черная и белая (1983) DVDRip


 
 
RSS
Начать новую тему   Ответить на тему    Торрент-трекер NNM-Club -> Видео -> Отечественные Фильмы для детей
Автор Сообщение
almikl ®
Куратор Детского.
Модератор Видео.
RG Всё лучшее - детям!
Uploader 500+
 
Стаж: 12 лет 3 мес.
Сообщений: 4721
Ratio: 333,442
Поблагодарили: 106234
100%
Откуда: Дааалекое Подмосковье
russia.gif
Магия черная и белая (1983) DVDRip
Производство: СССР
Жанр: Детский, Комедия, Семейный

Режиссер: Наум Бирман
Актеры: Александр Леньков, Александр Суснин, Антон Гранат, Виктор Сухоруков, Денис Левин, Любовь Малиновская, Маргарита Иванова, Михаил Девяткин, Наталья Попова, Николай Волков мл., Павел Плисов

Описание :
Закадычные друзья, четверокласники Сева Кухтин, неутомимый выдумщик и заводила, и солидный, степенный Витя Елхов всем надоели своими проказами. Эти два сорванца никак не угонятся за своей успеваемостью в школьном коллективе и поэтому новый классный руководитель решил сделать собрание на котором ребята класса решают их дальнейшую судьбу. Как тут, откуда не возьмись, предложение сделала «новенькая» с весьма оригинальным именем и фамилией — Эльвира Сабоните. Именно она заявила, что на ребят не действуют никакие уговоры и увещевания, потому что они ничем не интересуются и тратят свое свободное время не на увлечения, а на шалости. Девочка предложила не брать ребят в поход, пока они не займутся чем нибудь всерьез.


Возраст: 6+ (зрителям, достигшим 6 лет)

Продолжительность: 01:12:01
Качество видео: DVDRip

Видео: XviD, 720x400, ~2400 Kbps
Аудио: AC3, 2 ch, 256 Kbps

Общее
Полное имя : Магия черная и белая.1983.DVDRip.almikl.nnmclub.avi
Формат : AVI
Формат/Информация : Audio Video Interleave
Размер файла : 1,37 Гбайт
Продолжительность : 1 ч. 12 м.
Общий поток : 2718 Кбит/сек
Программа кодирования : VirtualDubMod 1.5.4.1 (build 2178/release)
Библиотека кодирования : VirtualDubMod build 2178/release

Видео
Идентификатор : 0
Формат : MPEG-4 Visual
Профиль формата : Advanced Simple@L5
Настройки формата : BVOP1 / Custom Matrix
Параметр BVOP формата : 1
Параметр QPel формата : Нет
Параметр GMC формата : Без точки перехода
Параметр матрицы формата : Выборочная
Идентификатор кодека : XVID
Идентификатор кодека/Подсказка : XviD
Продолжительность : 1 ч. 12 м.
Битрейт : 2455 Кбит/сек
Ширина : 720 пикселей
Высота : 400 пикселей
Соотношение сторон : 16:9
Частота кадров : 25,000 кадров/сек
Цветовое пространство : YUV
Субдискретизация насыщенности : 4:2:0
Битовая глубина : 8 бит
Тип развёртки : Прогрессивная
Метод сжатия : С потерями
Бит/(Пиксели*Кадры) : 0.341
Размер потока : 1,24 Гбайт (90%)
Библиотека кодирования : XviD 73

Аудио
Идентификатор : 1
Формат : AC-3
Формат/Информация : Audio Coding 3
Коммерческое название : Dolby Digital
Идентификатор кодека : 2000
Продолжительность : 1 ч. 12 м.
Вид битрейта : Постоянный
Битрейт : 256 Кбит/сек
Каналы : 2 канала
ChannelLayout : L R
Частота : 48,0 КГц
Частота кадров : 31,250 кадров/сек (1536 SPF)
Битовая глубина : 16 бит
Метод сжатия : С потерями
Размер потока : 132 Мбайт (9%)
Выравнивание : Разделение по промежуткам
Продолжительность промежутка : 96 мс. (2,40 видеокадра)
Время предзагрузки промежутка : 96 мс.
ServiceKind/String : Complete Main
Скриншоты:


Все одноименные релизы в Клубе

Время раздачи: 24/7 (до появления первых 3-5 скачавших)
Magiya chernaya i belaya.1983.DVDRip.almikl.nnmclub.avi.torrent
 Торрент: Платиновая раздача  Зарегистрирован
 
Скачать


Примагнититься
 Зарегистрирован:   05 Авг 2019 15:52:19
 Размер:   1,37 GB  (
 Рейтинг:    (Голосов: 4)
 Поблагодарили:   30
 Проверка:   Оформление проверено модератором 05 Авг 2019 16:01:30
Как cкачать  ·  Как раздать  ·  Правильно оформить  ·  Поднять ратио!  
Показать сообщения:   
Начать новую тему   Ответить на тему    Торрент-трекер NNM-Club -> Видео -> Отечественные Фильмы для детей Часовой пояс: GMT + 3
Страница 1 из 1