Классический форум-трекер
canvas not supported
Нас вместе: 4 079 237

Магия черная и белая (1983) DVDRip [H.264]


 
 
RSS
Начать новую тему   Ответить на тему    Торрент-трекер NNM-Club -> Видео -> Отечественные Фильмы для детей
Автор Сообщение
almikl ®
Куратор Детского.
Модератор Видео.
RG Всё лучшее - детям!
Uploader 500+
 
Стаж: 12 лет 4 мес.
Сообщений: 4758
Ratio: 340,373
Поблагодарили: 107533
100%
Откуда: Дааалекое Подмосковье
russia.gif
Магия черная и белая (1983) DVDRip
Производство: СССР
Жанр: Детский, Комедия, Семейный

Режиссер: Наум Бирман
Актеры: Александр Леньков, Александр Суснин, Антон Гранат, Виктор Сухоруков, Денис Левин, Любовь Малиновская, Маргарита Иванова, Михаил Девяткин, Наталья Попова, Николай Волков мл., Павел Плисов

Описание :
Закадычные друзья, четверокласники Сева Кухтин, неутомимый выдумщик и заводила, и солидный, степенный Витя Елхов всем надоели своими проказами. Эти два сорванца никак не угонятся за своей успеваемостью в школьном коллективе и поэтому новый классный руководитель решил сделать собрание на котором ребята класса решают их дальнейшую судьбу. Как тут, откуда не возьмись, предложение сделала «новенькая» с весьма оригинальным именем и фамилией — Эльвира Сабоните. Именно она заявила, что на ребят не действуют никакие уговоры и увещевания, потому что они ничем не интересуются и тратят свое свободное время не на увлечения, а на шалости. Девочка предложила не брать ребят в поход, пока они не займутся чем нибудь всерьез.


Возраст: 6+ (зрителям, достигшим 6 лет)

Продолжительность: 01:12:01
Качество видео: DVDRip

Видео: AVC\H.264, 696x376, ~2300 Kbps
Аудио: AC3, 2 ch, 256 Kbps

Общее
Уникальный идентификатор : 325195579824871705506666704280682506039 (0xF4A663F797A262B4D048AA4C05982737)
Полное имя : Магия черная и белая.1983.DVDRip.h264.almikl.nnmclub.mkv
Формат : Matroska
Версия формата : Version 2
Размер файла : 1,31 Гбайт
Продолжительность : 1 ч. 12 м.
Общий поток : 2602 Кбит/сек
Дата кодирования : UTC 2019-08-01 09:53:11
Программа кодирования : mkvmerge v34.0.0 ('Sight and Seen') 64-bit
Библиотека кодирования : libebml v1.3.7 + libmatroska v1.5.0

Видео
Идентификатор : 1
Формат : AVC
Формат/Информация : Advanced Video Codec
Профиль формата : High@L4.1
Настройки формата : CABAC / 7 Ref Frames
Параметр CABAC формата : Да
Параметр RefFrames формата : 7 кадров
Идентификатор кодека : V_MPEG4/ISO/AVC
Продолжительность : 1 ч. 12 м.
Битрейт : 2344 Кбит/сек
Ширина : 696 пикселей
Высота : 376 пикселей
Соотношение сторон : 1,85:1
Режим частоты кадров : Постоянный
Частота кадров : 25,000 кадров/сек
Цветовое пространство : YUV
Субдискретизация насыщенности : 4:2:0
Битовая глубина : 8 бит
Тип развёртки : Прогрессивная
Бит/(Пиксели*Кадры) : 0.358
Размер потока : 1,18 Гбайт (90%)
Библиотека кодирования : x264 core 157 r2969 d4099dd
Настройки программы : cabac=1 / ref=7 / deblock=1:-2:-2 / analyse=0x3:0x133 / me=umh / subme=10 / psy=1 / psy_rd=1.00:0.25 / mixed_ref=1 / me_range=24 / chroma_me=1 / trellis=2 / 8x8dct=1 / cqm=0 / deadzone=6,6 / fast_pskip=0 / chroma_qp_offset=-4 / threads=6 / lookahead_threads=1 / sliced_threads=0 / nr=0 / decimate=0 / interlaced=0 / bluray_compat=0 / constrained_intra=0 / bframes=9 / b_pyramid=2 / b_adapt=2 / b_bias=0 / direct=1 / weightb=1 / open_gop=0 / weightp=2 / keyint=240 / keyint_min=23 / scenecut=40 / intra_refresh=0 / rc_lookahead=40 / rc=2pass / mbtree=1 / bitrate=2344 / ratetol=1.0 / qcomp=0.60 / qpmin=0 / qpmax=69 / qpstep=4 / cplxblur=20.0 / qblur=0.5 / vbv_maxrate=50000 / vbv_bufsize=62500 / nal_hrd=none / filler=0 / ip_ratio=1.10 / aq=3:0.80
Default : Да
Forced : Нет

Аудио
Идентификатор : 2
Формат : AC-3
Формат/Информация : Audio Coding 3
Коммерческое название : Dolby Digital
Идентификатор кодека : A_AC3
Продолжительность : 1 ч. 12 м.
Вид битрейта : Постоянный
Битрейт : 256 Кбит/сек
Каналы : 2 канала
ChannelLayout : L R
Частота : 48,0 КГц
Частота кадров : 31,250 кадров/сек (1536 SPF)
Битовая глубина : 16 бит
Метод сжатия : С потерями
Размер потока : 132 Мбайт (10%)
Язык : new
ServiceKind/String : Complete Main
Default : Да
Forced : Нет
Скриншоты:


Все одноименные релизы в Клубе

Время раздачи: 24/7 (до появления первых 3-5 скачавших)
Magiya chernaya i belaya.1983.DVDRip.h264.almikl.nnmclub.mkv.torrent
 Торрент: Платиновая раздача  Зарегистрирован
 
Скачать


Примагнититься
 Зарегистрирован:   05 Авг 2019 16:21:34
 Размер:   1,31 GB  (
 Рейтинг:   4,9 (Голосов: 11)
 Поблагодарили:   56
 Проверка:   Оформление проверено модератором 05 Авг 2019 16:24:25
Как cкачать  ·  Как раздать  ·  Правильно оформить  ·  Поднять ратио!  
Показать сообщения:   
Начать новую тему   Ответить на тему    Торрент-трекер NNM-Club -> Видео -> Отечественные Фильмы для детей Часовой пояс: GMT + 3
Страница 1 из 1