Классический форум-трекер
canvas not supported
Нас вместе: 4 079 068

Магия черная и белая (1983) DVDRemux


 
 
RSS
Начать новую тему   Ответить на тему    Торрент-трекер NNM-Club -> Видео -> Отечественные Фильмы для детей
Автор Сообщение
almikl ®
Куратор Детского.
Модератор Видео.
RG Всё лучшее - детям!
Uploader 500+
 
Стаж: 12 лет 4 мес.
Сообщений: 4755
Ratio: 338,816
Поблагодарили: 107403
100%
Откуда: Дааалекое Подмосковье
russia.gif
Магия черная и белая (1983) DVDRemux
Производство: СССР
Жанр: Детский, Комедия, Семейный

Режиссер: Наум Бирман
Актеры: Александр Леньков, Александр Суснин, Антон Гранат, Виктор Сухоруков, Денис Левин, Любовь Малиновская, Маргарита Иванова, Михаил Девяткин, Наталья Попова, Николай Волков мл., Павел Плисов

Описание :
Закадычные друзья, четверокласники Сева Кухтин, неутомимый выдумщик и заводила, и солидный, степенный Витя Елхов всем надоели своими проказами. Эти два сорванца никак не угонятся за своей успеваемостью в школьном коллективе и поэтому новый классный руководитель решил сделать собрание на котором ребята класса решают их дальнейшую судьбу. Как тут, откуда не возьмись, предложение сделала «новенькая» с весьма оригинальным именем и фамилией — Эльвира Сабоните. Именно она заявила, что на ребят не действуют никакие уговоры и увещевания, потому что они ничем не интересуются и тратят свое свободное время не на увлечения, а на шалости. Девочка предложила не брать ребят в поход, пока они не займутся чем нибудь всерьез.


Возраст: 6+ (зрителям, достигшим 6 лет)

Продолжительность: 01:12:01
Качество видео: DVDRemux

Видео: MPEG-2, 720x576@768x576, ~8000 Kbps
Аудио: AC3, 2 ch, 256 Kbps

Общее
Уникальный идентификатор : 297568575560026664419295592693944512437 (0xDFDD9F7E1B12C1A7D9792785326F6FB5)
Полное имя : Магия черная и белая.1983.DVDRemux.almikl.nnmclub.mkv
Формат : Matroska
Версия формата : Version 2
Размер файла : 4,16 Гбайт
Продолжительность : 1 ч. 12 м.
Режим общего битрейта : Переменный
Общий поток : 8262 Кбит/сек
Дата кодирования : UTC 2019-07-31 13:03:23
Программа кодирования : MakeMKV v1.14.3 win(x64-release)
Библиотека кодирования : libmakemkv v1.14.3 (1.3.5/1.4.7) win(x64-release)

Видео
Идентификатор : 1
OriginalSourceMedium_ID/String : 224 (0xE0)
Формат : MPEG Video
Версия формата : Version 2
Профиль формата : Main@Main
Настройки формата : CustomMatrix / BVOP
Параметр BVOP формата : Да
Параметр матрицы формата : Выборочная
Параметр GOP формата : M=3, N=12
Структура изображения : Frame
Идентификатор кодека : V_MPEG2
Идентификатор кодека/Информация : MPEG 1 or 2 Video
Продолжительность : 1 ч. 12 м.
Вид битрейта : Переменный
Битрейт : 8001 Кбит/сек
Максимальный битрейт : 8216 Кбит/сек
Ширина : 720 пикселей
Высота : 576 пикселей
Соотношение сторон : 4:3
Режим частоты кадров : Постоянный
Частота кадров : 25,000 кадров/сек
Стандарт вещания : PAL
Цветовое пространство : YUV
Субдискретизация насыщенности : 4:2:0
Битовая глубина : 8 бит
Тип развёртки : Чересстрочная
Порядок развёртки : Верхнее поле первое
Метод сжатия : С потерями
Бит/(Пиксели*Кадры) : 0.772
Временной код первого кадра : 00:00:00:00
Оригинал временного кода : Group of pictures header
GOP, открыто/закрыто : Открыто
GOP, открыто/закрыто на первом кадре : Закрыто
Размер потока : 4,02 Гбайт (97%)
Язык : English
Default : Нет
Forced : Нет
Основные цвета : BT.601 PAL
Характеристики трансфера : BT.470 System B/G
Коэффициенты матрицы : BT.470 System B/G
Носитель оригинала : DVD-Video

Аудио
Идентификатор : 2
OriginalSourceMedium_ID/String : 189 (0xBD)128 (0x80)
Формат : AC-3
Формат/Информация : Audio Coding 3
Коммерческое название : Dolby Digital
Идентификатор кодека : A_AC3
Продолжительность : 1 ч. 12 м.
Вид битрейта : Постоянный
Битрейт : 256 Кбит/сек
Каналы : 2 канала
ChannelLayout : L R
Частота : 48,0 КГц
Частота кадров : 31,250 кадров/сек (1536 SPF)
Битовая глубина : 16 бит
Метод сжатия : С потерями
Размер потока : 132 Мбайт (3%)
Заголовок : Stereo
Язык : English
ServiceKind/String : Complete Main
Default : Да
Forced : Нет
Носитель оригинала : DVD-Video

Меню
00:00:00.080 : en:Chapter 01
00:07:20.240 : en:Chapter 02
00:13:26.960 : en:Chapter 03
00:19:41.840 : en:Chapter 04
00:27:40.880 : en:Chapter 05
00:32:47.120 : en:Chapter 06
00:39:22.160 : en:Chapter 07
00:45:56.720 : en:Chapter 08
00:52:22.160 : en:Chapter 09
01:01:03.440 : en:Chapter 10
01:05:31.760 : en:Chapter 11
Скриншоты:


Все одноименные релизы в Клубе

Время раздачи: 24/7 (до появления первых 3-5 скачавших)
Magiya chernaya i belaya.1983.DVDRemux.almikl.nnmclub.mkv.torrent
 Торрент: Платиновая раздача  Зарегистрирован
 
Скачать


Примагнититься
 Зарегистрирован:   05 Авг 2019 16:27:30
 Размер:   4,16 GB  (
 Рейтинг:   4,8 (Голосов: 15)
 Поблагодарили:   62
 Проверка:   Оформление проверено модератором 05 Авг 2019 16:28:55
Как cкачать  ·  Как раздать  ·  Правильно оформить  ·  Поднять ратио!  
Загрузка...
Показать сообщения:   
Начать новую тему   Ответить на тему    Торрент-трекер NNM-Club -> Видео -> Отечественные Фильмы для детей Часовой пояс: GMT + 3
Страница 1 из 1