Классический форум-трекер
canvas not supported
Нас вместе: 4 078 226

Без страха и упрека (1962) DVDRip


 
 
RSS
Начать новую тему   Ответить на тему    Торрент-трекер NNM-Club -> Видео -> Отечественные Фильмы для детей
Автор Сообщение
almikl ®
Куратор Детского.
Модератор Видео.
RG Всё лучшее - детям!
Uploader 500+
 
Стаж: 12 лет 3 мес.
Сообщений: 4721
Ratio: 333,568
Поблагодарили: 106274
100%
Откуда: Дааалекое Подмосковье
russia.gif
Без страха и упрека (1962) DVDRip
Производство: СССР
Жанр: Драма, Приключения

Режиссер: Александр Митта
Актеры: Алла Витрук, Виктор Глазков, Николай Бурляев, Савелий Крамаров, Николай Волков, Лев Золотухин, Марина Стриженова, Людмила Марченко, Анатолий Юшко, Елена Максимова, Николай Кодин, Эммануил Геллер, Елена Кононенко, Юрий Никулин, Кларина Фролова

Описание :
Командировочник Репнин приехал в Москву, чтобы отгрузить оборудование и сразу же вылететь в Заусолье, где его ждала экспедиция. Но в московской сутолоке Репнин теряет все деньги, которые находят Вадик, Юра и Тоша. Дети вошли в положение пострадавшего и решили найти его. Ключом к поискам стала программка испытаний рысаков, в которую были завернуты деньги. Дорога на ипподром оказалась длинной и интересной…


Возраст: 12+ (зрителям, достигшим 12 лет)

Продолжительность: 01:20:04
Качество видео: DVDRip (700 mb)

Видео: XviD, 464x352, ~1100 Kbps
Аудио: MP3,2 ch, 128 Kbps
Общее
Полное имя : Без страха и упрека.1962.DVDRip.700.almikl.nnmclub.avi
Формат : AVI
Формат/Информация : Audio Video Interleave
Размер файла : 700 Мбайт
Продолжительность : 1 ч. 20 м.
Режим общего битрейта : Переменный
Общий поток : 1222 Кбит/сек
Программа кодирования : VirtualDubMod 1.5.4.1 (build 2178/release)
Библиотека кодирования : VirtualDubMod build 2178/release

Видео
Идентификатор : 0
Формат : MPEG-4 Visual
Профиль формата : Advanced Simple@L5
Настройки формата : BVOP1 / Custom Matrix
Параметр BVOP формата : 1
Параметр QPel формата : Нет
Параметр GMC формата : Без точки перехода
Параметр матрицы формата : Выборочная
Идентификатор кодека : XVID
Идентификатор кодека/Подсказка : XviD
Продолжительность : 1 ч. 20 м.
Битрейт : 1100 Кбит/сек
Ширина : 464 пикселя
Высота : 352 пикселя
Соотношение сторон : 4:3
Частота кадров : 25,000 кадров/сек
Цветовое пространство : YUV
Субдискретизация насыщенности : 4:2:0
Битовая глубина : 8 бит
Тип развёртки : Прогрессивная
Метод сжатия : С потерями
Бит/(Пиксели*Кадры) : 0.269
Размер потока : 630 Мбайт (90%)
Библиотека кодирования : XviD 73

Аудио
Идентификатор : 1
Формат : MPEG Audio
Версия формата : Version 1
Профиль формата : Layer 3
Настройки формата : Joint stereo / MS Stereo
Идентификатор кодека : 55
Идентификатор кодека/Подсказка : MP3
Продолжительность : 1 ч. 20 м.
Вид битрейта : Переменный
Битрейт : 110 Кбит/сек
Номинальный битрейт : 128 Кбит/сек
Каналы : 2 канала
Частота : 48,0 КГц
Частота кадров : 41,667 кадра/сек (1152 SPF)
Метод сжатия : С потерями
Размер потока : 62,9 Мбайт (9%)
Выравнивание : Соединение по промежуткам
Продолжительность промежутка : 24 мс. (0,60 видеокадр)
Время предзагрузки промежутка : 493 мс.
Библиотека кодирования : LAME3.98r
Настройки программы : -m j -V 4 -q 2 -lowpass 17 --abr 128
Скриншоты:


Без страха и упрека на NNM-club
Время раздачи: практически ежедневно с 12 до 4 до 10 скачавших
Bez straha i upreka.1962.DVDRip.700.almikl.nnmclub.avi.torrent
 Торрент: Платиновая раздача  Зарегистрирован
 
Скачать


Примагнититься
 Зарегистрирован:   09 Авг 2019 08:31:00
 Размер:   700 MB  (
 Рейтинг:    (Голосов: 7)
 Поблагодарили:   49
 Проверка:   Оформление проверено модератором 09 Авг 2019 08:31:51
Как cкачать  ·  Как раздать  ·  Правильно оформить  ·  Поднять ратио!  
Показать сообщения:   
Начать новую тему   Ответить на тему    Торрент-трекер NNM-Club -> Видео -> Отечественные Фильмы для детей Часовой пояс: GMT + 3
Страница 1 из 1