Классический форум-трекер
canvas not supported
Нас вместе: 4 076 930

WebForMySelf | JavaScript. Полное руководство для современной веб-разработки (2019) [unpacked]


Страницы:   Пред.  1, 2, 3 
 
RSS
Начать новую тему   Ответить на тему    Торрент-трекер NNM-Club -> Мультимедийные материалы -> Компьютеры
Автор Сообщение
DepictWeb ®
Стаж: 9 лет 1 мес.
Сообщений: 576
Ratio: 76,721
Раздал: 5,54 TB
Поблагодарили: 63851
100%
pirates.png
WebForMySelf | JavaScript. Полное руководство для современной веб-разработки (2019) [unpacked]
Автор (издатель): WebForMySelf, Владилен Минин
Жанр: Программирование, JavaScript

Системные требования:
• операционная система Windows 2000/XP/Vista/7/8.1/10
• процессор 800 MHz
• оперативная память 512 МБ
• звуковая карта (можно встроенную в материнскую плату)
• видеокарта (можно встроенную в материнскую плату)


Формат: unpacked

Описание:
Изучите самый популярный язык разработки и станьте высокооплачиваемым профи. Полный охват теоретических и практических знаний и навыков по JS – без воды и в концентрированном виде. В курсе собраны лишь самые актуальные и востребованные в 2019 году знания по JS – для современной веб-разработки.

Продолжительность: 32:13:30
Качество видео: PCRec

Видео: AVC/H.264, 1024x768-1832x1010, ~74-3026 Kbps
Аудио: AAC, 2 ch, 63-125 Kbps

Общее
Полное имя : .\videokurs\bonus4\1.mp4
Формат : MPEG-4
Профиль формата : Base Media / Version 2
Идентификатор кодека : mp42 (M4V /mp42/isom)
Размер файла : 24,8 Мбайт
Продолжительность : 8 м. 41 с.
Общий поток : 399 Кбит/сек
Дата кодирования : UTC 2015-02-18 04:20:32
Дата пометки : UTC 2015-02-18 04:20:32

Видео
Идентификатор : 1
Формат : AVC
Формат/Информация : Advanced Video Codec
Профиль формата : High@L4
Настройки формата : CABAC / 4 Ref Frames
Параметр CABAC формата : Да
Параметр RefFrames формата : 4 кадра
Идентификатор кодека : avc1
Идентификатор кодека/Информация : Advanced Video Coding
Продолжительность : 8 м. 41 с.
Продолжительность оригинала : 8 м. 41 с.
Битрейт : 283 Кбит/сек
Ширина : 1024 пикселя
Высота : 768 пикселей
Соотношение сторон : 4:3
Режим частоты кадров : Постоянный
Частота кадров : 15,000 кадров/сек
Цветовое пространство : YUV
Субдискретизация насыщенности : 4:2:0
Битовая глубина : 8 бит
Тип развёртки : Прогрессивная
Бит/(Пиксели*Кадры) : 0.024
Размер потока : 17,6 Мбайт (71%)
Размер потока оригинала : 17,6 Мбайт (71%)
Язык : English
Дата кодирования : UTC 2015-02-18 04:20:32
Дата пометки : UTC 2015-02-18 04:20:32
Цветовой диапазон : Limited
Основные цвета : BT.709
Характеристики трансфера : BT.709
Коэффициенты матрицы : BT.709
mdhd_Duration : 521449
Codec configuration box : avcC

Аудио
Идентификатор : 2
Формат : AAC LC
Формат/Информация : Advanced Audio Codec Low Complexity
Идентификатор кодека : mp4a-40-2
Продолжительность : 8 м. 41 с.
Продолжительность оригинала : 8 м. 41 с.
Вид битрейта : Постоянный
Битрейт : 114 Кбит/сек
Каналы : 2 канала
Channel layout : L R
Частота : 44,1 КГц
Частота кадров : 43,066 кадра/сек (1024 SPF)
Метод сжатия : С потерями
Размер потока : 7,08 Мбайт (29%)
Размер потока оригинала : 7,08 Мбайт (29%)
Язык : English
Дата кодирования : UTC 2015-02-18 04:20:32
Дата пометки : UTC 2015-02-18 04:20:32
mdhd_Duration : 521448

Общее
Полное имя : .\videokurs\part1\5.mp4
Формат : MPEG-4
Профиль формата : Base Media / Version 2
Идентификатор кодека : mp42 (isom/mp42)
Размер файла : 22,4 Мбайт
Продолжительность : 11 м. 59 с.
Режим общего битрейта : Переменный
Общий поток : 262 Кбит/сек
Дата кодирования : UTC 2019-01-18 07:28:17
Дата пометки : UTC 2019-01-18 07:28:17

Видео
Идентификатор : 1
Формат : AVC
Формат/Информация : Advanced Video Codec
Профиль формата : Baseline@L3.1
Настройки формата : 3 Ref Frames
Параметр CABAC формата : Нет
Параметр RefFrames формата : 3 кадра
Идентификатор кодека : avc1
Идентификатор кодека/Информация : Advanced Video Coding
Продолжительность : 11 м. 59 с.
Битрейт : 133 Кбит/сек
Ширина : 1280 пикселей
Высота : 720 пикселей
Соотношение сторон : 16:9
Режим частоты кадров : Постоянный
Частота кадров : 30,000 кадров/сек
Стандарт вещания : NTSC
Цветовое пространство : YUV
Субдискретизация насыщенности : 4:2:0
Битовая глубина : 8 бит
Тип развёртки : Прогрессивная
Бит/(Пиксели*Кадры) : 0.005
Размер потока : 11,4 Мбайт (51%)
Язык : English
Дата кодирования : UTC 2019-01-18 07:28:17
Дата пометки : UTC 2019-01-18 07:28:17
Цветовой диапазон : Limited
Codec configuration box : avcC

Аудио
Идентификатор : 2
Формат : AAC LC
Формат/Информация : Advanced Audio Codec Low Complexity
Идентификатор кодека : mp4a-40-2
Продолжительность : 11 м. 59 с.
Вид битрейта : Переменный
Битрейт : 126 Кбит/сек
Максимальный битрейт : 419 Кбит/сек
Каналы : 2 канала
Channel layout : L R
Частота : 44,1 КГц
Частота кадров : 43,066 кадра/сек (1024 SPF)
Метод сжатия : С потерями
Размер потока : 10,8 Мбайт (48%)
Язык : English
Дата кодирования : UTC 2019-01-18 07:28:17
Дата пометки : UTC 2019-01-18 07:28:17

Общее
Полное имя : .\videokurs\bonus3\12.mp4
Формат : MPEG-4
Профиль формата : Base Media / Version 2
Идентификатор кодека : mp42 (mp41/mp42/isom)
Размер файла : 102 Мбайт
Продолжительность : 7 м. 14 с.
Режим общего битрейта : Переменный
Общий поток : 1959 Кбит/сек
Дата кодирования : UTC 2019-01-05 15:00:19
Дата пометки : UTC 2019-01-05 15:05:28

Видео
Идентификатор : 1
Формат : AVC
Формат/Информация : Advanced Video Codec
Профиль формата : Main@L4
Настройки формата : 2 Ref Frames
Параметр CABAC формата : Нет
Параметр RefFrames формата : 2 кадра
Параметр GOP формата : M=2, N=30
Идентификатор кодека : avc1
Идентификатор кодека/Информация : Advanced Video Coding
Продолжительность : 7 м. 14 с.
Вид битрейта : Переменный
Битрейт : 1829 Кбит/сек
Максимальный битрейт : 768 Кбит/сек
Ширина : 1832 пикселя
Высота : 1010 пикселей
Соотношение сторон : 16:9
Режим частоты кадров : Постоянный
Частота кадров : 30,000 кадров/сек
Цветовое пространство : YUV
Субдискретизация насыщенности : 4:2:0
Битовая глубина : 8 бит
Тип развёртки : Прогрессивная
Бит/(Пиксели*Кадры) : 0.033
Размер потока : 94,8 Мбайт (93%)
Заголовок : Core Media Video
Дата кодирования : UTC 2019-01-05 15:00:19
Дата пометки : UTC 2019-01-05 15:05:28
Цветовой диапазон : Limited
Основные цвета : BT.601 NTSC
Характеристики трансфера : BT.709
Коэффициенты матрицы : BT.601
Codec configuration box : avcC

Аудио
Идентификатор : 2
Формат : AAC LC
Формат/Информация : Advanced Audio Codec Low Complexity
Идентификатор кодека : mp4a-40-2
Продолжительность : 7 м. 14 с.
Продолжительность оригинала : 7 м. 14 с.
Вид битрейта : Постоянный
Битрейт : 128 Кбит/сек
Каналы : 2 канала
Channel layout : L R
Частота : 44,1 КГц
Частота кадров : 43,066 кадра/сек (1024 SPF)
Метод сжатия : С потерями
Размер потока : 6,49 Мбайт (6%)
Размер потока оригинала : 6,49 Мбайт (6%)
Заголовок : Core Media Audio
Дата кодирования : UTC 2019-01-05 15:00:20
Дата пометки : UTC 2019-01-05 15:05:28
В раздаче имеются архивы! В них содержится дополнительные материалы.
Блок 1. Что такое JavaScript
Количество уроков: 5
Продолжительность: 0:35:54
ЦЕЛИ И ЗАДАЧИ БЛОКА

В данном блоке говорится о том, что такое JavaScript, про то, как он работает. Далее говорится про выбор оптимальной среды разработки, в которой идет дальнейшая разработка на протяжении курса. В последнем уроке пишется первая мини-программа на JavaScript и разбираются способы включения скриптов в HTML файле.
Блок 2. Основы JavaScript
Количество уроков: 17
Продолжительность: 3:18:09
ЦЕЛИ И ЗАДАЧИ БЛОКА

Изучение начнется со старой версии языка - EcmaScript 5. А дальше осуществляется переход к самым последним нововведениям. В курсе рассмотрена именно эта версия, так как на текущий момент большое количество проектов еще написаны на старой версии и для их понимания необходимо понимать все аспекты языка.
Блок 3. Работа с DOM
Количество уроков: 9
Продолжительность: 1:28:15
ЦЕЛИ И ЗАДАЧИ БЛОКА

В данном блоке изучается взаимодействие с DOM-деревом. Разбирается, как получать доступ к DOM-элементам, как управлять состояниями элементов: менять свойства, контент, атрибуты и прочее. Рассматривается, как добавлять динамику веб страницам путем добавления событий на элементы. Далее говорится про свойства событий и способы их управления.
Блок 4. Дополнительные возможности
Количество уроков: 7
Продолжительность: 0:59:41
ЦЕЛИ И ЗАДАЧИ БЛОКА

В данном блоке вы познакомитесь с некоторыми дополнительными возможностями, заложенными в JavaScript, которые не были освещены ранее, но крайне важны для дальнейшего прохождения курса.

Вы узнаете про способы асинхронной загрузки скриптов, способы взаимодействия с пользователем и про некоторые глобальные объекты, позволяющие работать с данными: математические формулы, операции, работы с массивами. Далее вы узнаете про методы работы с датами и временем, способы работы с JSON-объектами и методы хранения данных локально в браузере пользователя.
Блок 5. Практика. Создание приложения
Количество уроков: 8
Продолжительность: 1:08:34
ЦЕЛИ И ЗАДАЧИ БЛОКА

Это первый практический блок из двух в данном курсе. В нем с нуля, применяя базовые знания, показано, как создать игру на JavaScript. Игра будет заключаться в том, что за выбранное вами время необходимо будет прокликать как можно больше случайно сгенерированных элементов разных размеров и цветов.
Блок 6. Объекты и функции
Количество уроков: 8
Продолжительность: 1:30:32
ЦЕЛИ И ЗАДАЧИ БЛОКА

Данный блок является продвинутым, в нем рассматривается «сложная» теория JavaScript с углублением. Вы узнаете про то, что такое прототипирование, как оно работает в рамках языка и какие полезные функции можно делать.

Вы узнаете про свойства объектов, как ими можно управлять. Узнаете про функции, как управлять передачей контекста и познакомитесь с таким понятием как замыкания.
Блок 7. Новый JavaScript: ES6
Количество уроков: 8
Продолжительность: 1:41:36
ЦЕЛИ И ЗАДАЧИ БЛОКА

Пройдя данный блок, вы познакомитесь с современным стандартом языка - EcmaScript 6. В данном блоке вы узнаете про все основные изменения, которые наиболее часто применяются в практике, такие как: переменные, стрелочные функции, объекты, новые операторы и удобные синтаксические изменения.
Блок 8. Асинхронность
Количество уроков: 7
Продолжительность: 1:36:05
ЦЕЛИ И ЗАДАЧИ БЛОКА

В данном блоке рассмотрено, как работать с асинхронными операциями в языке JavaScript. Вы узнаете про новые операторы Async Await и способы их применения для еще большего упрощения кода. После вы узнаете и научитесь более детальной работе с Promise.
Блок 9. Практика. Создание приложения
Количество уроков: 20
Продолжительность: 3:45:02
ЦЕЛИ И ЗАДАЧИ БЛОКА

Наиболее важный итоговый практический блок, в котором применяются все знания, полученные в данном курсе. Перед тем как его проходить стоит ознакомиться с двумя бонусными блоками по Webpack и основам NodeJS, так как в этом блоке создается приложение, используя самые передовые методы и инструменты разработки.

В результате данного блока создается полноценное приложение на чистом JavaScript, которое по своей сути будет блогом.
Скриншоты:


Время раздачи: 24/7 (круглосуточно) (до появления первых 3-5 скачавших)
[NNM-Club.me]_[WebForMySelf] JavaScript. Polnoe rukovodstvo dlya sovremennoy veb-razrabotki.torrent
 Торрент: Платиновая раздача  Зарегистрирован
 
Скачать


Примагнититься
 Зарегистрирован:   02 Мар 2019 22:27:56
 Размер:   7,86 GB  (
 Рейтинг:   4,9 (Голосов: 181)
 Поблагодарили:   678
 Проверка:   Оформление проверено модератором 02 Мар 2019 23:24:24
Поддержка релизов - https://www.donationalerts.ru/r/waffle_crap
Как cкачать  ·  Как раздать  ·  Правильно оформить  ·  Поднять ратио!  
devildemonn
Стаж: 7 лет 11 мес.
Сообщений: 40
Ratio: 3,118
4.21%
Пока первый курс, который смотрится нормально, без непреодолимого желания отложить на неопределенный срок, много практики, рекомендую.
AlexWorld111
Стаж: 1 год 5 мес.
Сообщений: 49
Ratio: 2,753
61.02%
Да, курс 2019 года, а уже устаревший как   мамонта... Нафиг такое вообще записывать. Большая часть курса вообще на Устаревшем стандарте ES5 объясняется.. переменные как var обозначаются.... Уже года 3 официальный валидатор ругается на такой обозначение... ЗАчем учить старому.. непонятно

Добавлено спустя 2 минуты 10 секунд:

devildemonn писал(а): Перейти к сообщению
Пока первый курс, который смотрится нормально, без непреодолимого желания отложить на неопределенный срок, много практики, рекомендую.

курс по сути непригоден для просмотра. Я хочу знать зачем он записал курс в 2019 году по es5 стандарту. Над вами с таким кодом в любой говноконторе только посмеются... в лучшем случае самые сентиментальные - посочувствуют
DepictWeb ®
Стаж: 9 лет 1 мес.
Сообщений: 576
Ratio: 76,721
Раздал: 5,54 TB
Поблагодарили: 63851
100%
pirates.png
AlexWorld111 писал(а): Перейти к сообщению
ЗАчем учить старому.. непонятно

Легаси код никто не отменял хД

_________________
Если хочешь отблагодарить или поддержать монетой будущие релизы, то пиши в личные сообщения.
aosky
Стаж: 4 года 11 мес.
Сообщений: 2
Ratio: 2,022
0.6%
А по node.js от WebForMySelf ещё нет? а то на складчинах уже так нормально лежит
Apsukrus
Стаж: 5 лет 3 мес.
Сообщений: 17
Ratio: 6,041
100%
aosky писал(а): Перейти к сообщению
А по node.js от WebForMySelf ещё нет? а то на складчинах уже так нормально лежит

Этот курс: WebForMySelf | Node.JS. Полное руководство (2019) [unpacked] [http://nnmclub.to/forum/viewtopic.php?t=1313212] ?
Snow1993
Стаж: 6 лет 7 мес.
Сообщений: 5
Ratio: 14,336
Раздал: 2,433 TB
100%
russia.gif
Курс несколько похож на видео Sorax-a. Если уже знаком с JS, то поможет освежить знания, возможно заполнить какие-то пробелы, но совсем для новичка я бы рекомендовать не стала (или смотреть в совокупности с другими курсами), ибо была бы новичком - не всё с такого объяснения сразу поняла бы, реально некоторые моменты опускаются перед объяснением тем. Практики МАЛО в курсе, а это самое основное, должно быть больше задач на самостоятельное решение. Мне понравился тем, что видео короткие, нет воды, качественно записаны, автор объясняя тему, тут же пишет код.
В общем, курс неплох, но и неидеален.
vakummm
Стаж: 9 лет 1 мес.
Сообщений: 11
Ratio: 1,963
3.38%
AlexWorld111 писал(а): Перейти к сообщению
переменные как var обозначаются....

в дальнейших блоках курса рассматриваются нововведения ES6
cumz55
Стаж: 6 лет 11 мес.
Сообщений: 291
Ratio: 7,525
12.63%
russia.gif
Не ставить ; в JS - очень сомнительно!
Показать сообщения:   
Начать новую тему   Ответить на тему    Торрент-трекер NNM-Club -> Мультимедийные материалы -> Компьютеры Часовой пояс: GMT + 3
Страницы:   Пред.  1, 2, 3
Страница 3 из 3