Классический форум-трекер
canvas not supported
Нас вместе: 4 077 939

Endless Boogie - Long Island (2013) [FLAC|Lossless]<Blues Rock, Psychedelic Rock>


 
 
RSS
Начать новую тему   Ответить на тему    Торрент-трекер NNM-Club -> Jazz, Blues, Soul -> Blues, Soul (Lossless)
Автор Сообщение
Vadimka ®
Модератор Музыки
RG Music
 
Стаж: 8 лет 8 мес.
Сообщений: 6016
Ratio: 614,555
Поблагодарили: 296426
100%
nnm-club.gif
Endless Boogie - Long Island (2013)
Год: 2013
Жанр: Blues Rock, Psychedelic Rock
Продолжительность: 01:19:36

Кодек: FLAC
Битрейт: Lossless

Трек лист:
01. The Savagist 13:31
02. Taking Out The Trash 06:42
03. The Artemus Ward 09:18
04. Imprecations 09:18
05. Occult Banker 09:17
06. On Cryology 11:17
07. General Admission 06:12
08. The Montgomery Manuscript 14:03
Код: выделить все

X Lossless Decoder version 20111015 (136.4)

XLD extraction logfile from 2013-02-20 17:18:36 -0500

Endless Boogie / Long Island

Used drive : HL-DT-ST DVDRW  GS31N (revision TA17)

Ripper mode             : XLD Secure Ripper
Disable audio cache     : OK for the drive with a cache less than 1375KiB
Make use of C2 pointers : NO
Read offset correction  : 667
Max retry count         : 100
Gap status              : Analyzed, Appended

TOC of the extracted CD
     Track |   Start  |  Length  | Start sector | End sector
    ---------------------------------------------------------
        1  | 00:00:00 | 13:31:66 |         0    |    60890
        2  | 13:31:66 | 06:42:21 |     60891    |    91061
        3  | 20:14:12 | 09:18:30 |     91062    |   132941
        4  | 29:32:42 | 09:17:44 |    132942    |   174760
        5  | 38:50:11 | 09:17:34 |    174761    |   216569
        6  | 48:07:45 | 11:16:50 |    216570    |   267319
        7  | 59:24:20 | 06:12:72 |    267320    |   295291
        8  | 65:37:17 | 14:03:61 |    295292    |   358577

AccurateRip Summary
    Disc not found in AccurateRip DB.

All Tracks
    Album gain             : -7.19 dB
    Peak                   : 0.970245
    Statistics
        Read error                           : 0
        Jitter error (maybe fixed)           : 0
        Retry sector count                   : 12
        Damaged sector count                 : 0

Track 01
    Filename : /Users/joshuatallman/Desktop/XLD OUTPUT/Endless Boogie - Long Island (2013) [FLAC]/01 The Savagist.flac
    Pre-gap length : 00:02:00

    Track gain             : -6.34 dB
    Peak                   : 0.970245
    CRC32 hash (test run)  : 90607172
    CRC32 hash             : 90607172
    CRC32 hash (skip zero) : 4DB54C64
    AccurateRip signature  : 9E8E67F6
        ->Track not present in AccurateRip database.
    Statistics
        Read error                           : 0
        Jitter error (maybe fixed)           : 0
        Retry sector count                   : 0
        Damaged sector count                 : 0

Track 02
    Filename : /Users/joshuatallman/Desktop/XLD OUTPUT/Endless Boogie - Long Island (2013) [FLAC]/02 Taking Out The Trash.flac

    Track gain             : -6.36 dB
    Peak                   : 0.970245
    CRC32 hash (test run)  : AC9966AB
    CRC32 hash             : AC9966AB
    CRC32 hash (skip zero) : 7386E84F
    AccurateRip signature  : 7AE6A09B
        ->Track not present in AccurateRip database.
    Statistics
        Read error                           : 0
        Jitter error (maybe fixed)           : 0
        Retry sector count                   : 0
        Damaged sector count                 : 0

Track 03
    Filename : /Users/joshuatallman/Desktop/XLD OUTPUT/Endless Boogie - Long Island (2013) [FLAC]/03 The Artemus Ward.flac

    Track gain             : -3.85 dB
    Peak                   : 0.970245
    CRC32 hash (test run)  : 3A860B0F
    CRC32 hash             : 3A860B0F
    CRC32 hash (skip zero) : 7D67E204
    AccurateRip signature  : D3D30C68
        ->Track not present in AccurateRip database.
    Statistics
        Read error                           : 0
        Jitter error (maybe fixed)           : 0
        Retry sector count                   : 0
        Damaged sector count                 : 0

Track 04
    Filename : /Users/joshuatallman/Desktop/XLD OUTPUT/Endless Boogie - Long Island (2013) [FLAC]/04 Imprecations.flac

    Track gain             : -7.72 dB
    Peak                   : 0.970245
    CRC32 hash (test run)  : 4AF8878A
    CRC32 hash             : 4AF8878A
    CRC32 hash (skip zero) : F1F71698
    AccurateRip signature  : CC73D485
        ->Track not present in AccurateRip database.
    Statistics
        Read error                           : 0
        Jitter error (maybe fixed)           : 0
        Retry sector count                   : 0
        Damaged sector count                 : 0

Track 05
    Filename : /Users/joshuatallman/Desktop/XLD OUTPUT/Endless Boogie - Long Island (2013) [FLAC]/05 Occult Banker.flac

    Track gain             : -7.32 dB
    Peak                   : 0.970245
    CRC32 hash (test run)  : BAF6A211
    CRC32 hash             : BAF6A211
    CRC32 hash (skip zero) : FB9C0206
    AccurateRip signature  : 6060AA87
        ->Track not present in AccurateRip database.
    Statistics
        Read error                           : 0
        Jitter error (maybe fixed)           : 0
        Retry sector count                   : 0
        Damaged sector count                 : 0

Track 06
    Filename : /Users/joshuatallman/Desktop/XLD OUTPUT/Endless Boogie - Long Island (2013) [FLAC]/06 On Cryology.flac

    Track gain             : -5.10 dB
    Peak                   : 0.970245
    CRC32 hash (test run)  : 7BD8FD77
    CRC32 hash             : 7BD8FD77
    CRC32 hash (skip zero) : 064A3683
    AccurateRip signature  : D39B4EB4
        ->Track not present in AccurateRip database.
    Statistics
        Read error                           : 0
        Jitter error (maybe fixed)           : 0
        Retry sector count                   : 0
        Damaged sector count                 : 0

Track 07
    Filename : /Users/joshuatallman/Desktop/XLD OUTPUT/Endless Boogie - Long Island (2013) [FLAC]/07 General Admission.flac

    Track gain             : -8.28 dB
    Peak                   : 0.970245
    CRC32 hash (test run)  : AEB2C7E6
    CRC32 hash             : AEB2C7E6
    CRC32 hash (skip zero) : CB8F12AA
    AccurateRip signature  : 8DF6C2EE
        ->Track not present in AccurateRip database.
    Statistics
        Read error                           : 0
        Jitter error (maybe fixed)           : 0
        Retry sector count                   : 0
        Damaged sector count                 : 0

Track 08
    Filename : /Users/joshuatallman/Desktop/XLD OUTPUT/Endless Boogie - Long Island (2013) [FLAC]/08 The Montgomery Manuscript.flac

    Track gain             : -3.88 dB
    Peak                   : 0.970245
    CRC32 hash (test run)  : 467F31B8
    CRC32 hash             : 467F31B8
    CRC32 hash (skip zero) : 5FFAEF21
    AccurateRip signature  : A008E333
        ->Track not present in AccurateRip database.
    Statistics
        Read error                           : 0
        Jitter error (maybe fixed)           : 0
        Retry sector count                   : 12
        Damaged sector count                 : 0

No errors occurred

End of status report

Код: выделить все

DON'T MODIFY THIS FILE

-----------------------

PERFORMER: auCDtect Task Manager, ver. 1.6.0 RC1 build 1.6.0.1
Copyright (c) 2008-2010 y-soft. All rights reserved
http://y-soft.org

ANALYZER: auCDtect: CD records authenticity detector, version 0.8.2
Copyright (c) 2004 Oleg Berngardt. All rights reserved.
Copyright (c) 2004 Alexander Djourik. All rights reserved.

FILE: 08 The Montgomery Manuscript.flac
  Size: 94763774 Hash: D2F6AD082769CFF293129D951F599229 Accuracy: -m0
  Conclusion: CDDA 100%
  Signature: 5FC27E3F7806198C67BD7B1CD16A021A1DECDCF7
FILE: 07 General Admission.flac
  Size: 39189482 Hash: 3ECB773A8728C229011D55AC991DD9EB Accuracy: -m0
  Conclusion: MPEG 95%
  Signature: 531F89E4DD9303E945F97290D3633593FEA50379
FILE: 06 On Cryology.flac
  Size: 67675389 Hash: D565BE56D2E5C40B50CABBD53E7438BD Accuracy: -m0
  Conclusion: CDDA 100%
  Signature: 94462B6CB1C228D54FFF7909AAA369E57DCEEC4B
FILE: 05 Occult Banker.flac
  Size: 63893445 Hash: A1849367BA8291D515C3F21E1798A136 Accuracy: -m0
  Conclusion: CDDA 100%
  Signature: 50B76D0BB753318628B195C62BF1E711C86A3DBF
FILE: 04 Imprecations.flac
  Size: 60286930 Hash: 224835F288DD934ADD3C23F716816B90 Accuracy: -m0
  Conclusion: CDDA 100%
  Signature: 363A19C39AAE76450B9FA13C57ED6096316255E0
FILE: 03 The Artemus Ward.flac
  Size: 56754849 Hash: DFF3D225C00DC49F9D32B878E4A131E2 Accuracy: -m0
  Conclusion: CDDA 100%
  Signature: A7075375DE713DCF7060FF43B9AC1DB999F59329
FILE: 02 Taking Out The Trash.flac
  Size: 44817295 Hash: F5F6160989D9F4EFA9DBC6DFA1E7E9BB Accuracy: -m0
  Conclusion: MPEG 95%
  Signature: A29EB8BB98072F757E4F8E083DA5314B6F7CA005
FILE: 01 The Savagist.flac
  Size: 87173930 Hash: F46E4766DDF4647CC5C047CB027DF201 Accuracy: -m0
  Conclusion: MPEG 95%
  Signature: C33A8732C2ED487FE651734483384924D19B0C56
Время раздачи: С 8:00 до 21:00 иногда 24/7


Поглощение/вытеснение
Только с согласия релизера

Beijing65
[NNM-Club.ru]_Endless Boogie - 2013 - Long Island.torrent
 Торрент: Платиновая раздача  Зарегистрирован
 
Скачать


 Зарегистрирован:   22 Май 2013 18:39:06
 Размер:   496 MB  (
 Рейтинг:   4,8 (Голосов: 14)
 Поблагодарили:   33
 Проверка:   Оформление проверено модератором 22 Май 2013 20:38:34
Как cкачать  ·  Как раздать  ·  Правильно оформить  ·  Поднять ратио!  

_________________
Исправили раздачу - напишите , указав ссылку на релиз.
Правила и рекомендации по оформлению релизов категории МУЗЫКА [19.02.2017]
hruppe
Стаж: 8 лет 7 мес.
Сообщений: 317
Ratio: 7,722
100%
russia.gif
Просто супер!
Показать сообщения:   
Начать новую тему   Ответить на тему    Торрент-трекер NNM-Club -> Jazz, Blues, Soul -> Blues, Soul (Lossless) Часовой пояс: GMT + 3
Страница 1 из 1