Классический форум-трекер
canvas not supported
Нас вместе: 4 077 841

Особые приметы: красавчик / Segni particolari: bellissimo (1983) DVD5


 
 
RSS
Начать новую тему   Ответить на тему    Торрент-трекер NNM-Club -> Классика кино и Старые фильмы до 90-х -> Зарубежная Классика (DVD)
Автор Сообщение
almikl ®
Куратор Детского.
Модератор Видео.
RG Всё лучшее - детям!
Uploader 500+
 
Стаж: 12 лет 3 мес.
Сообщений: 4702
Ratio: 332,443
Поблагодарили: 105587
100%
Откуда: Дааалекое Подмосковье
russia.gif
Особые приметы: красавчик / Segni particolari: bellissimo (1983) DVD5
Русское название: Особые приметы: красавчик
Оригинальное название: Segni particolari: bellissimo
Производство: Италия
Жанр: Комедия

Режиссер: Кaстеллано / Franco Castellano, Пиполо / Pipolo (Giuseppe Moccia)
Актеры: Адриано Челентано/ Adriano Celentano, Федерика Моро/ Federica Moro, Джанни Бонагура/ Gianni Bonagura, Симона Мариани/ Simona Mariani, Анна Канакис/ Anna Kanakis, Джакомо Россели/ Giacomo Rosselli, Антонелиа Робустелли/ Antonella Robustelli, Альфред Томас/ Alfred Thomas

Описание :
Писатель Матиа - неотразимый красавец, на которого вешаются все женщины. Он платит своей соседке, прекрасной и юной Микаэле, чтобы та под видом его дочери забраковывала всех, кто хочет затащить его под венец...


Возраст: 12+ (зрителям, достигшим 12 лет)

Релиз от: almikl ®

Продолжительность: 01:27:06
Качество видео: DVD5

Перевод: Одноголосый закадровый
Автор перевода: Мудров
Дополнительно: нет
Субтитры:
нет

Дата мировой премьеры: 22 декабря 1983

Видео: MPEG-2, 720x576@768x576, ~5400 Kbps
Аудио #1: AC3, 2 ch, 192 kbps - русский (Мудров)
Аудио #1: AC3, 2 ch, 192 kbps - английский
Title: Osobie.primeti.krasavchik.1983.DVD-5
Size: 3.68 Gb ( 3 856 594,00 KBytes ) - DVD-5
Enabled regions: 1, 2, 3, 4, 5, 6, 7, 8

VTS_01 :
Play Length: 00:00:00
Video: PAL 16:9 (720x576) VBR, Auto Letterboxed
Audio:
Italiano (Dolby AC3, 2 ch)

VTS_02 :
Play Length: 01:27:06
Video: PAL 16:9 (720x576) VBR, Auto Letterboxed
Audio:
Russian, AC3, 2/0 (L,R) ch, 192 kbps, Delay 0 mSec
Italiano, AC3, 2/0 (L,R) ch, 192 kbps, Delay 0 mSec

* Menus Information *

VIDEO_TS Menu
Video:
NTSC 4:3 (720x480) VBR
Auto Pan&Scan, Auto Letterboxed
English Language Unit :
Title Menu

VTS_01 Menu
Video:
PAL 16:9 (720x576) VBR
Auto Letterboxed
Audio:
Not specified (LinearPCM, 2 ch)
English Language Unit :
Root Menu

VTS_02 Menu
Video:
NTSC 4:3 (720x480) VBR
Auto Pan&Scan, Auto Letterboxed
English Language Unit :
Root Menu
Chapter (PTT) Menu
General
Complete name : G:\DVD\Osobie.primeti.krasavchik.1983.DVD-5\VIDEO_TS\VTS_02_1.VOB
Format : MPEG-PS
File size : 1 024 MiB
Duration : 24mn 5s
Overall bit rate : 5 942 Kbps

Video
ID : 224 (0xE0)
Format : MPEG Video
Format version : Version 2
Format profile : Main@Main
Format settings, BVOP : Yes
Format settings, Matrix : Default
Format settings, GOP : M=3, N=6
Duration : 24mn 5s
Bit rate mode : Variable
Bit rate : 5 439 Kbps
Nominal bit rate : 7 000 Kbps
Width : 720 pixels
Height : 576 pixels
Display aspect ratio : 16:9
Frame rate : 25.000 fps
Standard : PAL
Color space : YUV
Chroma subsampling : 4:2:0
Bit depth : 8 bits
Scan type : Interlaced
Scan order : Top Field First
Compression mode : Lossy
Bits/(Pixel*Frame) : 0.525
Stream size : 937 MiB (92%)

Audio #1
ID : 128 (0x80)
Format : AC-3
Format/Info : Audio Coding 3
Mode extension : CM (complete main)
Duration : 24mn 5s
Bit rate mode : Constant
Bit rate : 192 Kbps
Channel(s) : 2 channels
Channel positions : Front: L R
Sampling rate : 48.0 KHz
Bit depth : 16 bits
Compression mode : Lossy
Delay relative to video : -80ms
Stream size : 33.1 MiB (3%)

Audio #2
ID : 129 (0x81)
Format : AC-3
Format/Info : Audio Coding 3
Mode extension : CM (complete main)
Duration : 24mn 5s
Bit rate mode : Constant
Bit rate : 192 Kbps
Channel(s) : 2 channels
Channel positions : Front: L R
Sampling rate : 48.0 KHz
Bit depth : 16 bits
Compression mode : Lossy
Delay relative to video : -80ms
Stream size : 33.1 MiB (3%)

Menu
Скриншоты:


Все одноименные релизы в Клубе

Время раздачи: 24/7 (до появления первых 3-5 скачавших)
[NNMClub.to]_[NNM-Club.ru]_Osobie.primeti.krasavchik.1983.DVD-5.torrent
 Торрент: Платиновая раздача  Зарегистрирован
 
Скачать


Примагнититься
 Зарегистрирован:   22 Авг 2019 18:53:47
 Размер:   3,68 GB  (
 Рейтинг:   4,9 (Голосов: 35)
 Поблагодарили:   180
 Проверка:   Оформление проверено модератором 22 Авг 2019 18:55:11
Как cкачать  ·  Как раздать  ·  Правильно оформить  ·  Поднять ратио!  
serega1884
Стаж: 9 лет
Сообщений: 335
Ratio: 6,873
100%
ukraine.gif
Спасибо нажал - еще бы полиграфию ! :да:
almikl ®
Куратор Детского.
Модератор Видео.
RG Всё лучшее - детям!
Uploader 500+
 
Стаж: 12 лет 3 мес.
Сообщений: 4702
Ratio: 332,443
Поблагодарили: 105587
100%
Откуда: Дааалекое Подмосковье
russia.gif
Все раздачи Особые приметы: красавчик / Segni particolari: bellissimo (1983) на NNM-CLUB
serega1884
Стаж: 9 лет
Сообщений: 335
Ratio: 6,873
100%
ukraine.gif
Нет ни dvd ни обложек .... :огорчение:
almikl ®
Куратор Детского.
Модератор Видео.
RG Всё лучшее - детям!
Uploader 500+
 
Стаж: 12 лет 3 мес.
Сообщений: 4702
Ratio: 332,443
Поблагодарили: 105587
100%
Откуда: Дааалекое Подмосковье
russia.gif
almikl ®
Куратор Детского.
Модератор Видео.
RG Всё лучшее - детям!
Uploader 500+
 
Стаж: 12 лет 3 мес.
Сообщений: 4702
Ratio: 332,443
Поблагодарили: 105587
100%
Откуда: Дааалекое Подмосковье
russia.gif
Торрент перерегистрирован в рамках акции Включаем DHT в древних раздачах
Теперь вам нужно его скачать и открыть в торрент-клиенте, указав в качестве места сохранения раздаваемый файл или папку.
Показать сообщения:   
Начать новую тему   Ответить на тему    Торрент-трекер NNM-Club -> Классика кино и Старые фильмы до 90-х -> Зарубежная Классика (DVD) Часовой пояс: GMT + 3
Страница 1 из 1